<?xml version="1.0" standalone="no"?>
<!DOCTYPE svg PUBLIC "-//W3C//DTD SVG 1.1//EN" "http://www.w3.org/Graphics/SVG/1.1/DTD/svg11.dtd" >
<svg xmlns="http://www.w3.org/2000/svg" xmlns:xlink="http://www.w3.org/1999/xlink" version="1.1">
<metadata>
Created by FontForge 20201107 at Tue Jun 29 02:35:40 2021
 By bhall
2021 Brian J. Hall
</metadata>
<defs>
<font id="Protomolecule" horiz-adv-x="650" >
  <font-face 
    font-family="Protomolecule Regular"
    font-weight="400"
    font-stretch="normal"
    units-per-em="1000"
    panose-1="2 11 5 4 2 1 1 2 1 2"
    ascent="800"
    descent="-200"
    x-height="712"
    cap-height="712"
    bbox="-178 -229 1172 1148"
    underline-thickness="51"
    underline-position="-139"
    stemh="68"
    stemv="72"
    unicode-range="U+000D-FEFF"
  />
<missing-glyph horiz-adv-x="562" 
d="M90 0v712h382v-712h-382zM141 51h280v610h-280v-610z" />
    <glyph glyph-name=".notdef" horiz-adv-x="562" 
d="M90 0v712h382v-712h-382zM141 51h280v610h-280v-610z" />
    <glyph glyph-name=".null" horiz-adv-x="0" 
 />
    <glyph glyph-name=".null" horiz-adv-x="0" 
 />
    <glyph glyph-name="CR" unicode="&#xd;" horiz-adv-x="249" 
 />
    <glyph glyph-name="space" unicode=" " horiz-adv-x="249" 
 />
    <glyph glyph-name="exclam" unicode="!" horiz-adv-x="316" 
d="M215 712l-11 -512h-62l-10 512h83zM216 0h-86v84h86v-84z" />
    <glyph glyph-name="quotedbl" unicode="&#x22;" horiz-adv-x="423" 
d="M335 542h-79v170h79v-170zM167 542h-79v170h79v-170z" />
    <glyph glyph-name="numbersign" unicode="#" horiz-adv-x="653" 
d="M602 432h-96l-23 -141h89v-64h-99l-36 -227h-74l36 227h-160l-35 -227h-74l36 227h-89v64h100l23 141h-92v66h101l34 215h75l-35 -215h159l34 215h73l-34 -215h87v-66zM432 432h-159l-23 -141h159z" />
    <glyph glyph-name="dollar" unicode="$" horiz-adv-x="596" 
d="M540 196c0 -116 -86 -191 -218 -200v-110h-60v108c-94 4 -158 32 -220 94l52 52c53 -53 104 -74 172 -77v265l-20 2c-54 5 -102 30 -130 54c-36 32 -55 76 -55 133c0 113 76 190 201 200v89h60v-89c77 -4 131 -28 186 -77l-49 -49c-38 34 -79 56 -140 60v-259l31 -5
c66 -11 99 -24 129 -50c39 -33 61 -82 61 -141zM464 194c0 37 -12 69 -35 89c-33 29 -68 31 -110 37v-257c90 6 145 54 145 131zM266 399v252c-83 -7 -130 -57 -130 -131c0 -35 10 -63 32 -82c28 -23 64 -34 98 -39z" />
    <glyph glyph-name="percent" unicode="%" horiz-adv-x="833" 
d="M277 481v101c0 54 -22 87 -77 87s-78 -33 -78 -87v-101c0 -54 23 -86 78 -86s77 32 77 86zM335 479c0 -83 -57 -134 -135 -134s-135 51 -135 134v105c0 83 57 135 135 135s135 -52 135 -135v-105zM711 130v100c0 54 -22 87 -77 87s-78 -33 -78 -87v-100
c0 -55 23 -87 78 -87s77 32 77 87zM769 127c0 -82 -57 -134 -135 -134s-135 52 -135 134v105c0 83 57 135 135 135s135 -52 135 -135v-105zM614 712l-334 -712h-60l334 712h60z" />
    <glyph glyph-name="ampersand" unicode="&#x26;" horiz-adv-x="739" 
d="M671 0h-95l-64 78c-29 -27 -96 -84 -210 -84c-138 0 -225 83 -225 207c0 107 76 161 154 213c-35 42 -77 91 -77 155c0 85 66 149 157 149c89 0 155 -65 155 -150c0 -57 -34 -96 -79 -127l-53 -36l182 -219c29 44 39 83 40 163h72c-1 -90 -20 -163 -66 -218zM469 130
l-196 236c-61 -42 -122 -82 -122 -163c0 -85 62 -142 150 -142c53 0 107 14 168 69zM395 568c0 48 -36 85 -84 85c-49 0 -82 -35 -82 -83c0 -33 17 -60 64 -117l38 26c33 23 64 48 64 89z" />
    <glyph glyph-name="quotesingle" unicode="'" horiz-adv-x="255" 
d="M167 542h-79v170h79v-170z" />
    <glyph glyph-name="parenleft" unicode="(" horiz-adv-x="298" 
d="M236 -43l-51 -51c-35 35 -55 55 -72 86c-18 35 -21 66 -21 103v522c0 36 3 70 21 103c17 31 38 52 72 86l51 -51c-27 -25 -43 -41 -55 -65c-11 -20 -14 -46 -14 -79v-510c0 -33 2 -55 14 -79s29 -40 55 -65z" />
    <glyph glyph-name="parenright" unicode=")" horiz-adv-x="298" 
d="M112 -94l-51 51c26 25 43 41 55 65s14 46 14 79v510c0 33 -3 59 -14 79c-12 24 -28 40 -55 65l51 51c34 -34 55 -55 72 -86c18 -33 21 -67 21 -103v-522c0 -37 -3 -68 -21 -103c-17 -31 -37 -51 -72 -86z" />
    <glyph glyph-name="asterisk" unicode="*" horiz-adv-x="474" 
d="M407 472l-28 -49l-117 71l4 -137h-58l4 137l-116 -71l-29 49l120 65l-120 66l29 48l116 -71l-4 137h58l-4 -137l117 71l28 -48l-120 -66z" />
    <glyph glyph-name="plus" unicode="+" horiz-adv-x="522" 
d="M470 234h-175v-176h-67v176h-176v67h176v174h67v-174h175v-67z" />
    <glyph glyph-name="comma" unicode="," horiz-adv-x="264" 
d="M176 -65l-88 -79v232h88v-153z" />
    <glyph glyph-name="hyphen" unicode="-" horiz-adv-x="426" 
d="M350 236h-274v67h274v-67z" />
    <glyph glyph-name="period" unicode="." horiz-adv-x="270" 
d="M182 0h-94v94h94v-94z" />
    <glyph glyph-name="slash" unicode="/" horiz-adv-x="355" 
d="M356 786l-285 -860h-71l285 860h71z" />
    <glyph glyph-name="zero" unicode="0" horiz-adv-x="522" 
d="M456 190c0 -118 -84 -196 -195 -196c-112 0 -195 78 -195 196v332c0 118 83 196 195 196c111 0 195 -78 195 -196v-332zM384 194v324c0 78 -44 136 -123 136s-123 -58 -123 -136v-324c0 -78 44 -136 123 -136s123 58 123 136z" />
    <glyph glyph-name="one" unicode="1" horiz-adv-x="522" 
d="M330 0h-72v632l-133 -117v82l133 115h72v-712z" />
    <glyph glyph-name="two" unicode="2" horiz-adv-x="522" 
d="M461 0h-393v64l281 357c27 35 40 66 40 105c0 77 -46 128 -124 128c-66 0 -124 -37 -124 -129h-72c0 112 77 193 196 193c117 0 196 -75 196 -192c0 -57 -18 -94 -57 -144l-249 -318h306v-64z" />
    <glyph glyph-name="three" unicode="3" horiz-adv-x="522" 
d="M460 194c0 -131 -93 -201 -209 -201c-112 0 -203 59 -209 188h72c6 -89 69 -124 137 -124c77 0 137 51 137 138c0 86 -43 138 -140 138h-15v63h15c87 0 127 49 127 129c0 85 -55 130 -124 130c-75 0 -121 -46 -128 -119h-72c8 115 92 183 200 183c116 0 196 -77 196 -193
c0 -75 -32 -129 -96 -158c72 -27 109 -85 109 -174z" />
    <glyph glyph-name="four" unicode="4" horiz-adv-x="522" 
d="M482 113h-87v-113h-71v113h-284v65l257 534h77l-257 -534h207v202h71v-202h87v-65z" />
    <glyph glyph-name="five" unicode="5" horiz-adv-x="522" 
d="M462 235c0 -71 -6 -138 -57 -189c-33 -33 -79 -53 -142 -53c-62 0 -112 20 -143 51c-31 32 -46 73 -50 124h72c9 -71 46 -111 121 -111c35 0 67 12 88 33c37 37 39 94 39 145c0 87 -17 173 -120 173c-62 0 -104 -28 -118 -70h-65v374h360v-64h-295v-226
c28 31 72 49 128 49c53 0 95 -17 123 -45c52 -52 59 -124 59 -191z" />
    <glyph glyph-name="six" unicode="6" horiz-adv-x="522" 
d="M460 205c0 -121 -76 -211 -197 -211s-198 82 -198 205c0 51 15 100 45 160l175 353h74l-159 -320c22 10 47 15 75 15c111 0 185 -85 185 -202zM388 202c0 79 -44 144 -126 144c-76 0 -125 -56 -125 -144c0 -87 49 -144 125 -144s126 57 126 144z" />
    <glyph glyph-name="seven" unicode="7" horiz-adv-x="522" 
d="M471 648l-247 -648h-76l247 648h-248v-112h-71v176h395v-64z" />
    <glyph glyph-name="eight" unicode="8" horiz-adv-x="522" 
d="M471 196c0 -120 -92 -202 -210 -202s-210 82 -210 202c0 83 47 139 107 173c-56 32 -93 84 -93 158c0 111 83 191 196 191s196 -80 196 -191c0 -74 -36 -126 -92 -158c60 -34 106 -90 106 -173zM399 197c0 79 -60 139 -138 139s-138 -60 -138 -139s60 -139 138 -139
s138 60 138 139zM385 526c0 74 -51 128 -124 128s-124 -54 -124 -128c0 -75 51 -127 124 -127s124 52 124 127z" />
    <glyph glyph-name="nine" unicode="9" horiz-adv-x="522" 
d="M457 513c0 -51 -15 -100 -45 -160l-175 -353h-75l160 320c-22 -10 -48 -15 -76 -15c-111 0 -184 85 -184 202c0 121 76 211 197 211s198 -82 198 -205zM385 510c0 87 -50 144 -126 144s-125 -57 -125 -144c0 -79 43 -144 125 -144c76 0 126 56 126 144z" />
    <glyph glyph-name="colon" unicode=":" horiz-adv-x="297" 
d="M209 301h-94v94h94v-94zM209 0h-94v94h94v-94z" />
    <glyph glyph-name="semicolon" unicode=";" horiz-adv-x="297" 
d="M205 -65l-88 -79v232h88v-153zM209 301h-94v94h94v-94z" />
    <glyph glyph-name="less" unicode="&#x3c;" horiz-adv-x="522" 
d="M426 68l-331 168v66l331 168v-77l-250 -124l250 -124v-77z" />
    <glyph glyph-name="equal" unicode="=" horiz-adv-x="522" 
d="M470 320h-418v67h418v-67zM470 151h-418v66h418v-66z" />
    <glyph glyph-name="greater" unicode="&#x3e;" horiz-adv-x="522" 
d="M426 236l-331 -168v77l250 124l-250 124v77l331 -168v-66z" />
    <glyph glyph-name="question" unicode="?" horiz-adv-x="497" 
d="M451 536c0 -47 -19 -83 -45 -121l-82 -118c-12 -18 -18 -42 -18 -58v-39h-72v40c0 39 10 64 31 94l81 117c19 28 33 51 33 85c0 67 -48 118 -115 118c-71 0 -116 -56 -116 -119h-72c0 102 80 183 188 183c105 0 187 -75 187 -182zM313 0h-86v84h86v-84z" />
    <glyph glyph-name="at" unicode="@" horiz-adv-x="713" 
d="M641 0h-69v55c-33 -42 -73 -62 -134 -62c-56 0 -105 22 -136 61c-34 42 -44 93 -44 184c0 88 10 142 41 183c29 39 80 62 138 62s100 -21 134 -63v78c0 53 -10 84 -39 114c-28 28 -64 40 -111 40h-130c-47 0 -80 -11 -109 -40c-30 -30 -40 -59 -40 -114v-337
c0 -63 11 -87 57 -121l-49 -49c-61 45 -78 80 -78 169v336c0 68 18 122 56 161c37 38 89 56 154 56h148c64 0 116 -18 154 -56c39 -39 57 -93 57 -161v-496zM571 238c0 93 -16 183 -121 183s-121 -90 -121 -183s16 -183 121 -183s121 90 121 183z" />
    <glyph glyph-name="A" unicode="A" horiz-adv-x="611" 
d="M599 0h-81l-57 161h-311l-57 -161h-81l262 712h64zM439 227l-132 376l-134 -376h266z" />
    <glyph glyph-name="B" unicode="B" horiz-adv-x="668" 
d="M592 197c0 -129 -86 -197 -212 -197h-277v712h268c124 0 210 -71 210 -190c0 -75 -45 -134 -105 -156c68 -25 116 -84 116 -169zM516 199c0 80 -55 130 -143 130h-194v-261h194c88 0 143 51 143 131zM505 521c0 85 -61 123 -140 123h-186v-247h186c79 0 140 39 140 124z
" />
    <glyph glyph-name="C" unicode="C" horiz-adv-x="637" 
d="M572 206c-25 -133 -119 -212 -247 -212c-74 0 -134 26 -178 70c-67 67 -71 129 -71 292s4 225 71 292c44 44 104 70 178 70c129 0 222 -79 247 -212h-78c-19 88 -80 144 -169 144c-48 0 -90 -17 -123 -50c-45 -46 -50 -98 -50 -244s5 -198 50 -244c33 -33 75 -50 123 -50
c89 0 152 56 171 144h76z" />
    <glyph glyph-name="D" unicode="D" horiz-adv-x="673" 
d="M597 356c0 -109 0 -213 -63 -281c-48 -52 -107 -75 -187 -75h-244v712h244c80 0 139 -23 187 -75c63 -68 63 -172 63 -281zM521 356c0 99 -1 187 -47 236c-36 40 -86 52 -140 52h-155v-576h155c54 0 104 12 140 52c46 49 47 137 47 236z" />
    <glyph glyph-name="E" unicode="E" horiz-adv-x="600" 
d="M545 0h-442v712h442v-68h-366v-251h312v-68h-312v-257h366v-68z" />
    <glyph glyph-name="F" unicode="F" horiz-adv-x="580" 
d="M545 644h-366v-262h312v-68h-312v-314h-76v712h442v-68z" />
    <glyph glyph-name="G" unicode="G" 
d="M576 259c0 -82 -15 -132 -61 -183c-50 -55 -117 -82 -190 -82c-74 0 -134 26 -178 70c-67 67 -71 129 -71 292s4 225 71 292c44 44 104 70 178 70c134 0 229 -90 249 -213h-76c-20 91 -84 145 -173 145c-49 0 -91 -17 -123 -50c-45 -46 -50 -98 -50 -244s5 -198 50 -244
c32 -33 74 -50 123 -50c52 0 102 21 135 61c29 36 40 75 40 129v55h-175v65h251v-113z" />
    <glyph glyph-name="H" unicode="H" horiz-adv-x="696" 
d="M593 0h-76v325h-338v-325h-76v712h76v-319h338v319h76v-712z" />
    <glyph glyph-name="I" unicode="I" horiz-adv-x="282" 
d="M179 0h-76v712h76v-712z" />
    <glyph glyph-name="J" unicode="J" horiz-adv-x="501" 
d="M408 216c0 -137 -92 -222 -222 -222c-68 0 -119 20 -163 64l51 51c26 -26 53 -47 112 -47c93 0 146 59 146 164v486h76v-496z" />
    <glyph glyph-name="K" unicode="K" 
d="M636 0h-90l-217 379l-150 -180v-199h-76v712h76v-409l332 409h93l-224 -275z" />
    <glyph glyph-name="L" unicode="L" horiz-adv-x="573" 
d="M543 0h-440v712h76v-644h364v-68z" />
    <glyph glyph-name="M" unicode="M" horiz-adv-x="816" 
d="M713 0h-76v541l-195 -429h-65l-198 429v-541h-76v712h76l232 -505l226 505h76v-712z" />
    <glyph glyph-name="N" unicode="N" horiz-adv-x="732" 
d="M629 0h-72l-378 571v-571h-76v712h72l378 -569v569h76v-712z" />
    <glyph glyph-name="O" unicode="O" 
d="M574 356c0 -163 -5 -225 -72 -292c-44 -44 -103 -70 -177 -70s-134 26 -178 70c-67 67 -71 129 -71 292s4 225 71 292c44 44 104 70 178 70s133 -26 177 -70c67 -67 72 -129 72 -292zM498 356c0 146 -5 198 -50 244c-33 33 -75 50 -123 50s-90 -17 -123 -50
c-45 -46 -50 -98 -50 -244s5 -198 50 -244c33 -33 75 -50 123 -50s90 17 123 50c45 46 50 98 50 244z" />
    <glyph glyph-name="P" unicode="P" horiz-adv-x="630" 
d="M588 503c0 -127 -91 -210 -220 -210h-189v-293h-76v712h265c129 0 220 -82 220 -209zM512 503c0 94 -61 141 -150 141h-183v-283h183c89 0 150 48 150 142z" />
    <glyph glyph-name="Q" unicode="Q" horiz-adv-x="649" 
d="M574 356c0 -144 -3 -207 -49 -267l78 -78l-46 -46l-79 78c-39 -31 -92 -49 -153 -49c-74 0 -134 26 -178 70c-67 67 -71 129 -71 292s4 225 71 292c44 44 104 70 178 70s133 -26 177 -70c67 -67 72 -129 72 -292zM498 356c0 146 -5 198 -50 244c-32 33 -75 50 -123 50
s-91 -17 -123 -50c-45 -46 -50 -98 -50 -244s5 -198 50 -244c32 -33 75 -50 123 -50c38 0 72 10 101 34l-90 90l46 46l86 -87c27 42 30 98 30 211z" />
    <glyph glyph-name="R" unicode="R" horiz-adv-x="656" 
d="M601 0h-89l-162 316h-171v-316h-76v712h273c124 0 211 -75 211 -198c0 -104 -63 -172 -155 -191zM511 513c0 87 -59 131 -142 131h-190v-261h190c83 0 142 43 142 130z" />
    <glyph glyph-name="S" unicode="S" horiz-adv-x="588" 
d="M532 196c0 -125 -97 -202 -246 -202c-106 0 -177 27 -243 94l51 51c59 -59 114 -77 194 -77c105 0 169 48 169 132c0 38 -11 68 -35 89c-22 20 -42 27 -93 35l-83 12c-56 9 -98 26 -130 54c-36 32 -55 76 -55 134c0 121 87 200 228 200c91 0 151 -24 212 -78l-49 -49
c-43 41 -92 62 -166 62c-96 0 -151 -53 -151 -133c0 -35 10 -64 32 -83s56 -31 93 -37l83 -13c66 -10 97 -22 129 -51c38 -33 60 -81 60 -140z" />
    <glyph glyph-name="T" unicode="T" horiz-adv-x="548" 
d="M518 644h-206v-644h-76v644h-206v68h488v-68z" />
    <glyph glyph-name="U" unicode="U" horiz-adv-x="683" 
d="M590 235c0 -142 -105 -241 -249 -241s-248 99 -248 241v477h76v-471c0 -108 68 -179 172 -179s173 71 173 179v471h76v-477z" />
    <glyph glyph-name="V" unicode="V" horiz-adv-x="546" 
d="M538 712l-234 -712h-62l-234 712h80l185 -576l185 576h80z" />
    <glyph glyph-name="W" unicode="W" horiz-adv-x="854" 
d="M838 712l-182 -712h-71l-158 570l-158 -570h-71l-182 712h81l139 -574l157 574h68l157 -574l139 574h81z" />
    <glyph glyph-name="X" unicode="X" horiz-adv-x="551" 
d="M536 0h-88l-173 299l-174 -299h-86l218 365l-204 347h88l158 -281l158 281h88l-205 -347z" />
    <glyph glyph-name="Y" unicode="Y" horiz-adv-x="514" 
d="M506 712l-210 -418v-294h-76v294l-212 418h82l168 -341l166 341h82z" />
    <glyph glyph-name="Z" unicode="Z" horiz-adv-x="556" 
d="M499 0h-442v72l356 572h-342v68h428v-64l-359 -580h359v-68z" />
    <glyph glyph-name="bracketleft" unicode="[" horiz-adv-x="313" 
d="M269 -74h-177v860h177v-64h-105v-732h105v-64z" />
    <glyph glyph-name="backslash" unicode="\" horiz-adv-x="355" 
d="M355 -74h-71l-284 857h71z" />
    <glyph glyph-name="bracketright" unicode="]" horiz-adv-x="313" 
d="M221 -74h-177v62h108v736h-108v62h177v-860z" />
    <glyph glyph-name="asciicircum" unicode="^" horiz-adv-x="537" 
d="M465 413h-74l-122 228l-123 -228h-74l164 305h66z" />
    <glyph glyph-name="underscore" unicode="_" horiz-adv-x="537" 
d="M537 -165h-537v51h537v-51z" />
    <glyph glyph-name="grave" unicode="`" horiz-adv-x="500" 
d="M299 594h-66l-108 153h86z" />
    <glyph glyph-name="a" unicode="a" horiz-adv-x="598" 
d="M568 0h-80l-188 604l-190 -604h-80l234 712h70z" />
    <glyph glyph-name="b" unicode="b" horiz-adv-x="668" 
d="M103 68h270c62 0 143 51 143 131s-55 130 -143 130h-270v68h262c79 0 140 39 140 124s-61 123 -140 123h-262v68h268c124 0 210 -71 210 -190c0 -75 -45 -134 -105 -156c68 -25 116 -84 116 -169c0 -129 -86 -197 -212 -197h-277v68z" />
    <glyph glyph-name="c" unicode="c" horiz-adv-x="637" 
d="M572 206c-25 -133 -119 -212 -247 -212c-74 0 -134 26 -178 70c-67 67 -71 129 -71 292s4 225 71 292c44 44 104 70 178 70c129 0 222 -79 247 -212h-78c-19 88 -80 144 -169 144c-48 0 -90 -17 -123 -50c-45 -46 -50 -98 -50 -244s5 -198 50 -244c33 -33 75 -50 123 -50
c89 0 152 56 171 144h76z" />
    <glyph glyph-name="d" unicode="d" horiz-adv-x="673" 
d="M103 68h231c54 0 104 12 140 52c46 49 47 137 47 236s-1 187 -47 236c-36 40 -86 52 -140 52h-231v68h244c80 0 139 -23 187 -75c63 -68 63 -172 63 -281s0 -213 -63 -281c-48 -52 -107 -75 -187 -75h-244v68z" />
    <glyph glyph-name="e" unicode="e" horiz-adv-x="600" 
d="M103 712h442v-68h-442v68zM103 393h388v-68h-388v68zM103 68h442v-68h-442v68z" />
    <glyph glyph-name="f" unicode="f" horiz-adv-x="580" 
d="M103 382h388v-68h-312v-314h-76v382zM103 712h442v-68h-442v68z" />
    <glyph glyph-name="g" unicode="g" 
d="M576 259c0 -82 -15 -132 -61 -183c-50 -55 -117 -82 -190 -82c-74 0 -134 26 -178 70c-67 67 -71 129 -71 292s4 225 71 292c44 44 104 70 178 70c134 0 229 -90 249 -213h-76c-20 91 -84 145 -173 145c-49 0 -91 -17 -123 -50c-45 -46 -50 -98 -50 -244s5 -198 50 -244
c32 -33 74 -50 123 -50c52 0 102 21 135 61c29 36 40 75 40 129v55h-175v65h251v-113z" />
    <glyph glyph-name="h" unicode="h" horiz-adv-x="696" 
d="M179 0h-76v712h76v-712zM517 712h76v-712h-76v712z" />
    <glyph glyph-name="i" unicode="i" horiz-adv-x="282" 
d="M179 0h-76v712h76v-712z" />
    <glyph glyph-name="j" unicode="j" horiz-adv-x="501" 
d="M408 216c0 -137 -92 -222 -222 -222c-68 0 -119 20 -163 64l51 51c26 -26 53 -47 112 -47c93 0 146 59 146 164v486h76v-496z" />
    <glyph glyph-name="k" unicode="k" 
d="M636 0h-90l-217 379l-150 -180v-199h-76v712h76v-409l332 409h93l-224 -275z" />
    <glyph glyph-name="l" unicode="l" horiz-adv-x="573" 
d="M543 0h-440v712h76v-644h364v-68z" />
    <glyph glyph-name="m" unicode="m" horiz-adv-x="816" 
d="M713 0h-76v541l-195 -429h-65l-198 429v-541h-76v712h76l232 -505l226 505h76v-712z" />
    <glyph glyph-name="n" unicode="n" horiz-adv-x="732" 
d="M629 0h-72l-378 571v-571h-76v712h72l378 -569v569h76v-712z" />
    <glyph glyph-name="o" unicode="o" 
d="M574 356c0 -163 -5 -225 -72 -292c-44 -44 -103 -70 -177 -70s-134 26 -178 70c-67 67 -71 129 -71 292s4 225 71 292c44 44 104 70 178 70s133 -26 177 -70c67 -67 72 -129 72 -292zM498 356c0 146 -5 198 -50 244c-33 33 -75 50 -123 50s-90 -17 -123 -50
c-45 -46 -50 -98 -50 -244s5 -198 50 -244c33 -33 75 -50 123 -50s90 17 123 50c45 46 50 98 50 244z" />
    <glyph glyph-name="p" unicode="p" horiz-adv-x="630" 
d="M103 361h259c89 0 150 48 150 142s-61 141 -150 141h-259v68h265c129 0 220 -82 220 -209s-91 -210 -220 -210h-189v-293h-76v361z" />
    <glyph glyph-name="q" unicode="q" horiz-adv-x="649" 
d="M574 356c0 -144 -3 -207 -49 -267l78 -78l-46 -46l-79 78c-39 -31 -92 -49 -153 -49c-74 0 -134 26 -178 70c-67 67 -71 129 -71 292s4 225 71 292c44 44 104 70 178 70s133 -26 177 -70c67 -67 72 -129 72 -292zM498 356c0 146 -5 198 -50 244c-32 33 -75 50 -123 50
s-91 -17 -123 -50c-45 -46 -50 -98 -50 -244s5 -198 50 -244c32 -33 75 -50 123 -50c38 0 72 10 101 34l-90 90l46 46l86 -87c27 42 30 98 30 211z" />
    <glyph glyph-name="r" unicode="r" horiz-adv-x="656" 
d="M103 383h266c83 0 142 43 142 130s-59 131 -142 131h-266v68h273c124 0 211 -75 211 -198c0 -104 -63 -172 -155 -191l169 -323h-89l-162 316h-171v-316h-76v383z" />
    <glyph glyph-name="s" unicode="s" horiz-adv-x="588" 
d="M532 196c0 -125 -97 -202 -246 -202c-106 0 -177 27 -243 94l51 51c59 -59 114 -77 194 -77c105 0 169 48 169 132c0 38 -11 68 -35 89c-22 20 -42 27 -93 35l-83 12c-56 9 -98 26 -130 54c-36 32 -55 76 -55 134c0 121 87 200 228 200c91 0 151 -24 212 -78l-49 -49
c-43 41 -92 62 -166 62c-96 0 -151 -53 -151 -133c0 -35 10 -64 32 -83s56 -31 93 -37l83 -13c66 -10 97 -22 129 -51c38 -33 60 -81 60 -140z" />
    <glyph glyph-name="t" unicode="t" horiz-adv-x="548" 
d="M518 644h-206v-644h-76v644h-206v68h488v-68z" />
    <glyph glyph-name="u" unicode="u" horiz-adv-x="683" 
d="M590 235c0 -142 -105 -241 -249 -241s-248 99 -248 241v477h76v-471c0 -108 68 -179 172 -179s173 71 173 179v471h76v-477z" />
    <glyph glyph-name="v" unicode="v" horiz-adv-x="546" 
d="M538 712l-234 -712h-62l-234 712h80l185 -576l185 576h80z" />
    <glyph glyph-name="w" unicode="w" horiz-adv-x="854" 
d="M838 712l-182 -712h-71l-158 570l-158 -570h-71l-182 712h81l139 -574l157 574h68l157 -574l139 574h81z" />
    <glyph glyph-name="x" unicode="x" horiz-adv-x="551" 
d="M536 0h-88l-173 299l-174 -299h-86l218 365l-204 347h88l158 -281l158 281h88l-205 -347z" />
    <glyph glyph-name="y" unicode="y" horiz-adv-x="514" 
d="M506 712l-210 -418v-294h-76v294l-212 418h82l168 -341l166 341h82z" />
    <glyph glyph-name="z" unicode="z" horiz-adv-x="556" 
d="M499 0h-442v72l356 572h-342v68h428v-64l-359 -580h359v-68z" />
    <glyph glyph-name="braceleft" unicode="{" horiz-adv-x="354" 
d="M305 -74h-37c-50 0 -80 9 -101 30c-22 22 -30 47 -30 99v191c0 28 -6 48 -18 60c-10 10 -26 18 -45 18h-26v64h26c19 0 35 8 45 18c12 12 18 32 18 60v191c0 52 8 77 30 99c21 21 51 30 101 30h37v-64h-23c-35 0 -49 -3 -59 -13c-11 -11 -14 -29 -14 -65v-188
c0 -57 -25 -82 -63 -100c38 -18 63 -43 63 -100v-188c0 -36 3 -54 14 -65c10 -10 24 -13 59 -13h23v-64z" />
    <glyph glyph-name="bar" unicode="|" horiz-adv-x="326" 
d="M199 -74h-72v860h72v-860z" />
    <glyph glyph-name="braceright" unicode="}" horiz-adv-x="354" 
d="M305 324h-25c-19 0 -35 -8 -45 -18c-12 -12 -18 -32 -18 -60v-191c0 -52 -8 -77 -30 -99c-21 -21 -51 -30 -101 -30h-38v64h24c35 0 48 3 58 13c11 11 15 29 15 65v188c0 57 25 82 63 100c-38 18 -63 43 -63 100v188c0 36 -4 54 -15 65c-10 10 -23 13 -58 13h-24v64h38
c50 0 80 -9 101 -30c22 -22 30 -47 30 -99v-191c0 -28 6 -48 18 -60c10 -10 26 -18 45 -18h25v-64z" />
    <glyph glyph-name="asciitilde" unicode="~" horiz-adv-x="539" 
d="M490 278c-56 -56 -84 -68 -129 -68c-35 0 -68 14 -106 31c-28 13 -51 24 -78 24c-28 0 -45 -6 -84 -45l-44 45c56 56 84 68 129 68c35 0 67 -14 105 -31c28 -13 51 -24 78 -24c28 0 45 6 84 45z" />
    <glyph glyph-name="uni00A0" unicode="&#xa0;" horiz-adv-x="249" 
 />
    <glyph glyph-name="exclamdown" unicode="&#xa1;" horiz-adv-x="316" 
d="M184 -220h-83l10 512h62zM185 408h-86v84h86v-84z" />
    <glyph glyph-name="cent" unicode="&#xa2;" horiz-adv-x="498" 
d="M448 189c-46 -50 -86 -70 -145 -74v-115h-59v117c-110 16 -181 105 -181 249s71 233 181 249v97h59v-95c59 -4 99 -24 145 -74l-49 -46c-33 37 -60 52 -100 55v-372c40 3 67 18 100 55zM248 182v368c-33 -6 -60 -24 -80 -52c-23 -32 -33 -70 -33 -132s10 -100 33 -132
c20 -28 47 -46 80 -52z" />
    <glyph glyph-name="sterling" unicode="&#xa3;" horiz-adv-x="548" 
d="M496 0h-386v330h-63v54h63v112c0 137 93 222 223 222c68 0 119 -20 163 -64l-52 -51c-26 26 -52 47 -111 47c-93 0 -146 -59 -146 -164v-102h146v-54h-146v-262h309v-68z" />
    <glyph glyph-name="currency" unicode="&#xa4;" horiz-adv-x="660" 
d="M582 65l-46 -46l-75 74c-36 -27 -81 -44 -131 -44s-96 17 -132 44l-74 -74l-46 46l74 74c-27 36 -44 82 -44 132s17 96 44 132l-74 73l46 46l74 -73c36 27 82 43 132 43s95 -16 131 -43l75 73l46 -46l-74 -73c27 -36 44 -82 44 -132s-17 -96 -44 -132zM485 271
c0 86 -69 155 -155 155s-156 -69 -156 -155s70 -156 156 -156s155 70 155 156z" />
    <glyph glyph-name="yen" unicode="&#xa5;" horiz-adv-x="514" 
d="M506 712l-157 -311h100v-54h-127l-26 -53v-52h153v-55h-153v-187h-77v187h-154v55h154v52l-26 53h-128v54h100l-157 311h82l168 -341l167 341h81z" />
    <glyph glyph-name="brokenbar" unicode="&#xa6;" horiz-adv-x="335" 
d="M199 436h-72v350h72v-350zM199 -74h-72v350h72v-350z" />
    <glyph glyph-name="section" unicode="&#xa7;" horiz-adv-x="557" 
d="M470 254c0 -82 -51 -138 -104 -164c57 -21 97 -71 97 -144c0 -104 -81 -172 -184 -172c-99 0 -183 54 -189 161h73c6 -62 49 -95 116 -95c68 0 111 38 111 105c0 46 -32 86 -88 102l-78 22c-88 25 -137 92 -137 183c0 82 51 138 105 164c-57 26 -93 65 -93 138
c0 97 75 164 180 164c104 0 178 -60 182 -157h-72c-5 66 -46 93 -110 93c-67 0 -108 -34 -108 -99c0 -53 34 -82 84 -96l78 -22c87 -25 137 -93 137 -183zM397 253c0 38 -7 67 -32 92c-23 23 -51 36 -86 36s-65 -13 -86 -36c-23 -25 -33 -51 -33 -92c0 -43 14 -71 33 -92
c21 -23 51 -36 86 -36s65 13 86 36c20 22 32 49 32 92z" />
    <glyph glyph-name="dieresis" unicode="&#xa8;" horiz-adv-x="500" 
d="M392 602h-72v89h72v-89zM180 602h-72v89h72v-89z" />
    <glyph glyph-name="copyright" unicode="&#xa9;" horiz-adv-x="881" 
d="M802 356c0 -200 -162 -362 -362 -362s-362 162 -362 362s162 362 362 362s362 -162 362 -362zM744 356c0 169 -136 308 -304 308s-303 -139 -303 -308s135 -308 303 -308s304 139 304 308zM576 205c-39 -35 -75 -52 -131 -52c-116 0 -178 86 -178 203s62 204 178 204
c56 0 90 -17 131 -53l-36 -36c-33 29 -58 39 -95 39c-91 0 -122 -70 -122 -154s31 -153 122 -153c37 0 62 9 95 38z" />
    <glyph glyph-name="ordfeminine" unicode="&#xaa;" horiz-adv-x="449" 
d="M365 319h-58v36c-31 -30 -60 -41 -111 -41c-54 0 -85 11 -110 36c-19 20 -30 48 -30 79c0 69 48 114 135 114h115v36c0 56 -26 84 -97 84c-49 0 -74 -11 -98 -44l-41 37c36 46 77 60 140 60c105 0 155 -47 155 -132v-265zM306 458v40h-107c-57 0 -84 -23 -84 -67
s26 -65 86 -65c33 0 62 2 86 25c13 12 19 34 19 67z" />
    <glyph glyph-name="guillemotleft" unicode="&#xab;" horiz-adv-x="554" 
d="M250 58l-210 210l210 210v-90l-120 -120l120 -121v-89zM476 58l-210 210l210 210v-90l-121 -120l121 -121v-89z" />
    <glyph glyph-name="logicalnot" unicode="&#xac;" horiz-adv-x="522" 
d="M471 103h-67v137h-353v67h420v-204z" />
    <glyph glyph-name="uni00AD" unicode="&#xad;" horiz-adv-x="426" 
d="M350 236h-274v67h274v-67z" />
    <glyph glyph-name="registered" unicode="&#xae;" horiz-adv-x="881" 
d="M802 356c0 -200 -162 -362 -362 -362s-362 162 -362 362s162 362 362 362s362 -162 362 -362zM745 356c0 170 -137 309 -305 309s-304 -139 -304 -309s136 -309 304 -309s305 139 305 309zM592 158h-64l-91 162h-60v-162h-55v397h135c69 0 125 -52 125 -119
c0 -58 -36 -94 -85 -109zM526 436c0 40 -31 70 -75 70h-74v-139h74c44 0 75 29 75 69z" />
    <glyph glyph-name="macron" unicode="&#xaf;" horiz-adv-x="500" 
d="M99 613v57h301v-57h-301z" />
    <glyph glyph-name="degree" unicode="&#xb0;" horiz-adv-x="463" 
d="M396 557c0 -91 -73 -164 -164 -164s-165 73 -165 164s74 164 165 164s164 -73 164 -164zM335 557c0 60 -45 106 -104 106s-103 -46 -103 -106s45 -106 104 -106s103 46 103 106z" />
    <glyph glyph-name="plusminus" unicode="&#xb1;" horiz-adv-x="522" 
d="M470 289h-175v-177h-67v177h-176v67h176v175h67v-175h175v-67zM470 0h-418v67h418v-67z" />
    <glyph glyph-name="twosuperior" unicode="&#xb2;" horiz-adv-x="318" 
d="M287 285h-246v52l165 202c16 20 23 36 23 58c0 40 -24 67 -65 67c-34 0 -65 -18 -65 -67h-58c0 72 51 119 123 119s123 -46 123 -119c0 -37 -13 -60 -39 -92l-138 -168h177v-52z" />
    <glyph glyph-name="threesuperior" unicode="&#xb3;" horiz-adv-x="318" 
d="M293 405c0 -82 -58 -125 -129 -125c-68 0 -128 37 -131 119h58c2 -47 36 -67 73 -67c41 0 72 27 72 73c0 45 -25 73 -75 73h-9v50h9c46 0 68 27 68 68c0 45 -30 68 -66 68c-39 0 -64 -24 -67 -63h-57c4 72 57 115 124 115c72 0 123 -48 123 -119c0 -46 -20 -76 -54 -92
c38 -16 61 -47 61 -100z" />
    <glyph glyph-name="acute" unicode="&#xb4;" horiz-adv-x="500" 
d="M375 747l-108 -153h-66l88 153h86z" />
    <glyph glyph-name="mu" unicode="&#xb5;" horiz-adv-x="561" 
d="M471 0h-72v55c-35 -40 -83 -61 -138 -61c-44 0 -80 13 -106 37v-251h-72v712h72v-303c0 -87 47 -131 121 -131s123 45 123 131v303h72v-492z" />
    <glyph glyph-name="paragraph" unicode="&#xb6;" horiz-adv-x="603" 
d="M500 -220h-72v864h-117v-864h-72v546c-120 0 -197 94 -197 192c0 107 80 194 217 194h241v-932z" />
    <glyph glyph-name="periodcentered" unicode="&#xb7;" horiz-adv-x="270" 
d="M182 223h-94v94h94v-94z" />
    <glyph glyph-name="cedilla" unicode="&#xb8;" horiz-adv-x="500" 
d="M313 -67l-59 -149h-79l71 149h67z" />
    <glyph glyph-name="onesuperior" unicode="&#xb9;" horiz-adv-x="318" 
d="M207 285h-57v363l-83 -73v66l83 71h57v-427z" />
    <glyph glyph-name="ordmasculine" unicode="&#xba;" horiz-adv-x="455" 
d="M387 515c0 -61 -8 -115 -48 -156c-27 -27 -64 -44 -112 -44s-85 17 -112 44c-40 41 -48 95 -48 156c0 60 8 115 48 156c27 27 64 45 112 45s85 -18 112 -45c40 -41 48 -96 48 -156zM328 515c0 43 -3 91 -31 119c-18 18 -43 28 -70 28s-52 -10 -70 -28
c-28 -28 -30 -76 -30 -119s2 -90 30 -118c18 -18 43 -29 70 -29s52 11 70 29c28 28 31 75 31 118z" />
    <glyph glyph-name="guillemotright" unicode="&#xbb;" horiz-adv-x="554" 
d="M514 268l-210 -210v89l120 121l-120 120v90zM288 268l-210 -210v89l121 121l-121 120v90z" />
    <glyph glyph-name="onequarter" unicode="&#xbc;" horiz-adv-x="821" 
d="M207 285h-57v363l-83 -73v66l83 71h57v-427zM607 712l-333 -712h-60l333 712h60zM801 65h-47v-65h-57v65h-172v52l151 310h62l-151 -310h110v105h57v-105h47v-52z" />
    <glyph glyph-name="onehalf" unicode="&#xbd;" horiz-adv-x="821" 
d="M207 285h-57v363l-83 -73v66l83 71h57v-427zM607 712l-333 -712h-60l333 712h60zM790 0h-246v52l165 202c16 20 23 36 23 58c0 40 -24 67 -65 67c-34 0 -65 -18 -65 -67h-58c0 72 51 119 123 119s123 -46 123 -119c0 -37 -13 -60 -39 -92l-138 -168h177v-52z" />
    <glyph glyph-name="threequarters" unicode="&#xbe;" horiz-adv-x="821" 
d="M293 405c0 -81 -58 -124 -129 -124c-69 0 -128 37 -131 119h58c3 -48 36 -67 73 -67c40 0 72 27 72 73c0 44 -25 72 -75 72h-9v51h9c45 0 68 27 68 67c0 44 -31 68 -66 68c-39 0 -64 -24 -67 -63h-57c4 72 57 115 124 115c73 0 123 -47 123 -119c0 -46 -20 -75 -54 -91
c38 -16 61 -48 61 -101zM607 712l-333 -712h-60l333 712h60zM801 65h-47v-65h-57v65h-172v52l151 310h62l-151 -310h110v105h57v-105h47v-52z" />
    <glyph glyph-name="questiondown" unicode="&#xbf;" horiz-adv-x="497" 
d="M421 -43c0 -102 -79 -183 -187 -183c-105 0 -188 76 -188 183c0 47 20 82 46 120l82 118c12 18 18 42 18 58v40h72v-41c0 -39 -11 -64 -32 -94l-81 -116c-19 -28 -33 -51 -33 -85c0 -67 49 -118 116 -118c71 0 115 55 115 118h72zM270 408h-85v84h85v-84z" />
    <glyph glyph-name="Agrave" unicode="&#xc0;" horiz-adv-x="611" 
d="M599 0h-81l-57 161h-311l-57 -161h-81l262 712h64zM439 227l-132 376l-134 -376h266zM353 780h-69l-105 154h83z" />
    <glyph glyph-name="Aacute" unicode="&#xc1;" horiz-adv-x="611" 
d="M599 0h-81l-57 161h-311l-57 -161h-81l262 712h64zM439 227l-132 376l-134 -376h266zM425 934l-105 -154h-69l91 154h83z" />
    <glyph glyph-name="Acircumflex" unicode="&#xc2;" horiz-adv-x="611" 
d="M599 0h-81l-57 161h-311l-57 -161h-81l262 712h64zM439 227l-132 376l-134 -376h266zM461 780h-69l-90 105l-91 -105h-69l126 153h68z" />
    <glyph glyph-name="Atilde" unicode="&#xc3;" horiz-adv-x="611" 
d="M599 0h-81l-57 161h-311l-57 -161h-81l262 712h64zM439 227l-132 376l-134 -376h266zM459 844c-46 -45 -72 -50 -95 -50c-29 0 -47 9 -71 23c-19 11 -36 21 -56 21c-17 0 -30 -3 -59 -32l-37 36c45 45 71 51 95 51c29 0 46 -8 71 -24c21 -13 36 -20 56 -20
c15 0 29 2 59 32z" />
    <glyph glyph-name="Adieresis" unicode="&#xc4;" horiz-adv-x="611" 
d="M599 0h-81l-57 161h-311l-57 -161h-81l262 712h64zM439 227l-132 376l-134 -376h266zM448 789h-72v89h72v-89zM236 789h-72v89h72v-89z" />
    <glyph glyph-name="Aring" unicode="&#xc5;" horiz-adv-x="611" 
d="M599 0h-81l-57 161h-311l-57 -161h-81l262 712h64zM439 227l-132 376l-134 -376h266zM420 867c0 -65 -53 -119 -118 -119s-118 54 -118 119s53 118 118 118s118 -52 118 -118zM371 867c0 38 -31 68 -69 68s-69 -30 -69 -68s31 -69 69 -69s69 31 69 69z" />
    <glyph glyph-name="AE" unicode="&#xc6;" horiz-adv-x="922" 
d="M867 0h-441v169h-247l-88 -169h-83l376 712h483v-68h-366v-253h312v-68h-312v-255h366v-68zM426 235v409l-214 -409h214z" />
    <glyph glyph-name="Ccedilla" unicode="&#xc7;" horiz-adv-x="637" 
d="M572 206c-25 -133 -119 -212 -247 -212c-74 0 -134 26 -178 70c-67 67 -71 129 -71 292s4 225 71 292c44 44 104 70 178 70c129 0 222 -79 247 -212h-78c-19 88 -80 144 -169 144c-48 0 -90 -17 -123 -50c-45 -46 -50 -98 -50 -244s5 -198 50 -244c33 -33 75 -50 123 -50
c89 0 152 56 171 144h76zM370 -67l-59 -149h-79l71 149h67z" />
    <glyph glyph-name="Egrave" unicode="&#xc8;" horiz-adv-x="600" 
d="M545 0h-442v712h442v-68h-366v-251h312v-68h-312v-257h366v-68zM364 780h-69l-105 154h83z" />
    <glyph glyph-name="Eacute" unicode="&#xc9;" horiz-adv-x="600" 
d="M545 0h-442v712h442v-68h-366v-251h312v-68h-312v-257h366v-68zM436 934l-105 -154h-69l91 154h83z" />
    <glyph glyph-name="Ecircumflex" unicode="&#xca;" horiz-adv-x="600" 
d="M545 0h-442v712h442v-68h-366v-251h312v-68h-312v-257h366v-68zM472 780h-69l-90 105l-91 -105h-69l126 153h68z" />
    <glyph glyph-name="Edieresis" unicode="&#xcb;" horiz-adv-x="600" 
d="M545 0h-442v712h442v-68h-366v-251h312v-68h-312v-257h366v-68zM455 789h-72v89h72v-89zM243 789h-72v89h72v-89z" />
    <glyph glyph-name="Igrave" unicode="&#xcc;" horiz-adv-x="282" 
d="M179 0h-76v712h76v-712zM181 780h-69l-105 154h83z" />
    <glyph glyph-name="Iacute" unicode="&#xcd;" horiz-adv-x="282" 
d="M179 0h-76v712h76v-712zM275 934l-105 -154h-69l91 154h83z" />
    <glyph glyph-name="Icircumflex" unicode="&#xce;" horiz-adv-x="282" 
d="M179 0h-76v712h76v-712zM299 780h-69l-90 105l-91 -105h-69l126 153h68z" />
    <glyph glyph-name="Idieresis" unicode="&#xcf;" horiz-adv-x="282" 
d="M179 0h-76v712h76v-712zM283 789h-72v89h72v-89zM71 789h-72v89h72v-89z" />
    <glyph glyph-name="Eth" unicode="&#xd0;" horiz-adv-x="687" 
d="M611 356c0 -109 -2 -214 -63 -281c-48 -52 -107 -75 -187 -75h-244v330h-78v59h78v323h244c80 0 139 -23 187 -75c63 -68 63 -172 63 -281zM535 356c0 99 -1 187 -47 236c-36 40 -86 52 -140 52h-155v-255h162v-59h-162v-262h155c54 0 104 12 140 52c46 49 47 137 47 236
z" />
    <glyph glyph-name="Ntilde" unicode="&#xd1;" horiz-adv-x="732" 
d="M629 0h-72l-378 571v-571h-76v712h72l378 -569v569h76v-712zM523 844c-46 -45 -72 -50 -95 -50c-29 0 -47 9 -71 23c-19 11 -36 21 -56 21c-17 0 -30 -3 -59 -32l-37 36c45 45 71 51 95 51c29 0 46 -8 71 -24c21 -13 36 -20 56 -20c15 0 29 2 59 32z" />
    <glyph glyph-name="Ograve" unicode="&#xd2;" 
d="M574 356c0 -163 -5 -225 -72 -292c-44 -44 -103 -70 -177 -70s-134 26 -178 70c-67 67 -71 129 -71 292s4 225 71 292c44 44 104 70 178 70s133 -26 177 -70c67 -67 72 -129 72 -292zM498 356c0 146 -5 198 -50 244c-33 33 -75 50 -123 50s-90 -17 -123 -50
c-45 -46 -50 -98 -50 -244s5 -198 50 -244c33 -33 75 -50 123 -50s90 17 123 50c45 46 50 98 50 244zM376 780h-69l-105 154h83z" />
    <glyph glyph-name="Oacute" unicode="&#xd3;" 
d="M574 356c0 -163 -5 -225 -72 -292c-44 -44 -103 -70 -177 -70s-134 26 -178 70c-67 67 -71 129 -71 292s4 225 71 292c44 44 104 70 178 70s133 -26 177 -70c67 -67 72 -129 72 -292zM498 356c0 146 -5 198 -50 244c-33 33 -75 50 -123 50s-90 -17 -123 -50
c-45 -46 -50 -98 -50 -244s5 -198 50 -244c33 -33 75 -50 123 -50s90 17 123 50c45 46 50 98 50 244zM448 934l-105 -154h-69l91 154h83z" />
    <glyph glyph-name="Ocircumflex" unicode="&#xd4;" 
d="M574 356c0 -163 -5 -225 -72 -292c-44 -44 -103 -70 -177 -70s-134 26 -178 70c-67 67 -71 129 -71 292s4 225 71 292c44 44 104 70 178 70s133 -26 177 -70c67 -67 72 -129 72 -292zM498 356c0 146 -5 198 -50 244c-33 33 -75 50 -123 50s-90 -17 -123 -50
c-45 -46 -50 -98 -50 -244s5 -198 50 -244c33 -33 75 -50 123 -50s90 17 123 50c45 46 50 98 50 244zM484 780h-69l-90 105l-91 -105h-69l126 153h68z" />
    <glyph glyph-name="Otilde" unicode="&#xd5;" 
d="M574 356c0 -163 -5 -225 -72 -292c-44 -44 -103 -70 -177 -70s-134 26 -178 70c-67 67 -71 129 -71 292s4 225 71 292c44 44 104 70 178 70s133 -26 177 -70c67 -67 72 -129 72 -292zM498 356c0 146 -5 198 -50 244c-33 33 -75 50 -123 50s-90 -17 -123 -50
c-45 -46 -50 -98 -50 -244s5 -198 50 -244c33 -33 75 -50 123 -50s90 17 123 50c45 46 50 98 50 244zM482 844c-46 -45 -72 -50 -95 -50c-29 0 -47 9 -71 23c-19 11 -36 21 -56 21c-17 0 -30 -3 -59 -32l-37 36c45 45 71 51 95 51c29 0 46 -8 71 -24c21 -13 36 -20 56 -20
c15 0 29 2 59 32z" />
    <glyph glyph-name="Odieresis" unicode="&#xd6;" 
d="M574 356c0 -163 -5 -225 -72 -292c-44 -44 -103 -70 -177 -70s-134 26 -178 70c-67 67 -71 129 -71 292s4 225 71 292c44 44 104 70 178 70s133 -26 177 -70c67 -67 72 -129 72 -292zM498 356c0 146 -5 198 -50 244c-33 33 -75 50 -123 50s-90 -17 -123 -50
c-45 -46 -50 -98 -50 -244s5 -198 50 -244c33 -33 75 -50 123 -50s90 17 123 50c45 46 50 98 50 244zM467 789h-72v89h72v-89zM255 789h-72v89h72v-89z" />
    <glyph glyph-name="multiply" unicode="&#xd7;" horiz-adv-x="522" 
d="M457 119l-45 -45l-151 151l-151 -151l-45 45l151 151l-151 151l45 45l151 -152l151 152l45 -45l-152 -151z" />
    <glyph glyph-name="Oslash" unicode="&#xd8;" 
d="M574 356c0 -163 -3 -223 -72 -292c-44 -44 -103 -70 -177 -70c-49 0 -90 11 -126 31l-33 -69h-65l50 104c-71 69 -75 130 -75 296c0 163 4 225 71 292c44 44 104 70 178 70c48 0 92 -11 125 -31l34 69h65l-50 -105c72 -70 75 -132 75 -295zM152 356
c0 -127 4 -184 35 -226l234 492c-26 18 -60 28 -96 28c-48 0 -91 -17 -123 -50c-45 -46 -50 -98 -50 -244zM498 356c0 127 -4 183 -35 226l-234 -492c27 -18 60 -28 96 -28c48 0 90 17 123 50c45 46 50 98 50 244z" />
    <glyph glyph-name="Ugrave" unicode="&#xd9;" horiz-adv-x="683" 
d="M590 235c0 -142 -105 -241 -249 -241s-248 99 -248 241v477h76v-471c0 -108 68 -179 172 -179s173 71 173 179v471h76v-477zM392 780h-69l-105 154h83z" />
    <glyph glyph-name="Uacute" unicode="&#xda;" horiz-adv-x="683" 
d="M590 235c0 -142 -105 -241 -249 -241s-248 99 -248 241v477h76v-471c0 -108 68 -179 172 -179s173 71 173 179v471h76v-477zM464 934l-105 -154h-69l91 154h83z" />
    <glyph glyph-name="Ucircumflex" unicode="&#xdb;" horiz-adv-x="683" 
d="M590 235c0 -142 -105 -241 -249 -241s-248 99 -248 241v477h76v-471c0 -108 68 -179 172 -179s173 71 173 179v471h76v-477zM500 780h-69l-90 105l-91 -105h-69l126 153h68z" />
    <glyph glyph-name="Udieresis" unicode="&#xdc;" horiz-adv-x="683" 
d="M590 235c0 -142 -105 -241 -249 -241s-248 99 -248 241v477h76v-471c0 -108 68 -179 172 -179s173 71 173 179v471h76v-477zM483 789h-72v89h72v-89zM271 789h-72v89h72v-89z" />
    <glyph glyph-name="Yacute" unicode="&#xdd;" horiz-adv-x="514" 
d="M506 712l-210 -418v-294h-76v294l-212 418h82l168 -341l166 341h82zM380 934l-105 -154h-69l91 154h83z" />
    <glyph glyph-name="Thorn" unicode="&#xde;" horiz-adv-x="642" 
d="M588 359c0 -128 -90 -209 -220 -209h-189v-150h-76v712h76v-143h189c130 0 220 -82 220 -210zM512 359c0 94 -62 141 -151 141h-182v-282h182c89 0 151 47 151 141z" />
    <glyph glyph-name="germandbls" unicode="&#xdf;" horiz-adv-x="556" 
d="M484 141c0 -45 -14 -81 -39 -105c-28 -25 -56 -36 -103 -36h-54v62h40c28 0 42 7 59 20c17 14 25 36 25 67v169c0 29 -5 48 -21 62c-14 14 -34 21 -59 21h-44v60h36c53 0 88 35 88 91c0 29 -10 56 -31 75c-20 19 -52 29 -94 29c-90 0 -124 -55 -124 -135v-521h-73v524
c0 126 78 195 201 195c107 0 193 -51 193 -166c0 -55 -24 -94 -63 -119c48 -24 63 -57 63 -120v-173z" />
    <glyph glyph-name="agrave" unicode="&#xe0;" horiz-adv-x="611" 
d="M568 0h-80l-188 604l-190 -604h-80l234 712h70zM353 780h-69l-105 154h83z" />
    <glyph glyph-name="aacute" unicode="&#xe1;" horiz-adv-x="611" 
d="M568 0h-80l-188 604l-190 -604h-80l234 712h70zM599 0zM425 934l-105 -154h-69l91 154h83z" />
    <glyph glyph-name="acircumflex" unicode="&#xe2;" horiz-adv-x="611" 
d="M568 0h-80l-188 604l-190 -604h-80l234 712h70zM461 780h-69l-90 105l-91 -105h-69l126 153h68z" />
    <glyph glyph-name="atilde" unicode="&#xe3;" horiz-adv-x="611" 
d="M568 0h-80l-188 604l-190 -604h-80l234 712h70zM459 844c-46 -45 -72 -50 -95 -50c-29 0 -47 9 -71 23c-19 11 -36 21 -56 21c-17 0 -30 -3 -59 -32l-37 36c45 45 71 51 95 51c29 0 46 -8 71 -24c21 -13 36 -20 56 -20c15 0 29 2 59 32z" />
    <glyph glyph-name="adieresis" unicode="&#xe4;" horiz-adv-x="611" 
d="M568 0h-80l-188 604l-190 -604h-80l234 712h70zM448 789h-72v89h72v-89zM236 789h-72v89h72v-89z" />
    <glyph glyph-name="aring" unicode="&#xe5;" horiz-adv-x="611" 
d="M568 0h-80l-188 604l-190 -604h-80l234 712h70zM420 867c0 -65 -53 -119 -118 -119s-118 54 -118 119s53 118 118 118s118 -52 118 -118zM371 867c0 38 -31 68 -69 68s-69 -30 -69 -68s31 -69 69 -69s69 31 69 69z" />
    <glyph glyph-name="ae" unicode="&#xe6;" horiz-adv-x="922" 
d="M426 0l-2 643l-333 -643h-83l376 712h483v-68h-366v-253h312v-68h-312v-255h366v-68h-441z" />
    <glyph glyph-name="ccedilla" unicode="&#xe7;" horiz-adv-x="637" 
d="M572 206c-25 -133 -119 -212 -247 -212c-74 0 -134 26 -178 70c-67 67 -71 129 -71 292s4 225 71 292c44 44 104 70 178 70c129 0 222 -79 247 -212h-78c-19 88 -80 144 -169 144c-48 0 -90 -17 -123 -50c-45 -46 -50 -98 -50 -244s5 -198 50 -244c33 -33 75 -50 123 -50
c89 0 152 56 171 144h76zM370 -67l-59 -149h-79l71 149h67z" />
    <glyph glyph-name="egrave" unicode="&#xe8;" horiz-adv-x="600" 
d="M103 712h442v-68h-442v68zM103 393h388v-68h-388v68zM103 68h442v-68h-442v68zM364 780h-69l-105 154h83z" />
    <glyph glyph-name="eacute" unicode="&#xe9;" horiz-adv-x="600" 
d="M103 712h442v-68h-442v68zM103 393h388v-68h-388v68zM103 68h442v-68h-442v68zM436 934l-105 -154h-69l91 154h83z" />
    <glyph glyph-name="ecircumflex" unicode="&#xea;" horiz-adv-x="600" 
d="M103 712h442v-68h-442v68zM103 393h388v-68h-388v68zM103 68h442v-68h-442v68zM472 780h-69l-90 105l-91 -105h-69l126 153h68z" />
    <glyph glyph-name="edieresis" unicode="&#xeb;" horiz-adv-x="600" 
d="M103 712h442v-68h-442v68zM103 393h388v-68h-388v68zM103 68h442v-68h-442v68zM455 789h-72v89h72v-89zM243 789h-72v89h72v-89z" />
    <glyph glyph-name="igrave" unicode="&#xec;" horiz-adv-x="282" 
d="M179 0h-76v712h76v-712zM181 780h-69l-105 154h83z" />
    <glyph glyph-name="iacute" unicode="&#xed;" horiz-adv-x="282" 
d="M179 0h-76v712h76v-712zM275 934l-105 -154h-69l91 154h83z" />
    <glyph glyph-name="icircumflex" unicode="&#xee;" horiz-adv-x="282" 
d="M179 0h-76v712h76v-712zM299 780h-69l-90 105l-91 -105h-69l126 153h68z" />
    <glyph glyph-name="idieresis" unicode="&#xef;" horiz-adv-x="282" 
d="M179 0h-76v712h76v-712zM283 789h-72v89h72v-89zM71 789h-72v89h72v-89z" />
    <glyph glyph-name="eth" unicode="&#xf0;" horiz-adv-x="687" 
d="M611 356c0 -109 -2 -214 -63 -281c-48 -52 -107 -75 -187 -75h-244v330h-78v59h78v323h244c80 0 139 -23 187 -75c63 -68 63 -172 63 -281zM535 356c0 99 -1 187 -47 236c-36 40 -86 52 -140 52h-155v-255h162v-59h-162v-262h155c54 0 104 12 140 52c46 49 47 137 47 236
z" />
    <glyph glyph-name="ntilde" unicode="&#xf1;" horiz-adv-x="732" 
d="M629 0h-72l-378 571v-571h-76v712h72l378 -569v569h76v-712zM523 844c-46 -45 -72 -50 -95 -50c-29 0 -47 9 -71 23c-19 11 -36 21 -56 21c-17 0 -30 -3 -59 -32l-37 36c45 45 71 51 95 51c29 0 46 -8 71 -24c21 -13 36 -20 56 -20c15 0 29 2 59 32z" />
    <glyph glyph-name="ograve" unicode="&#xf2;" 
d="M574 356c0 -163 -5 -225 -72 -292c-44 -44 -103 -70 -177 -70s-134 26 -178 70c-67 67 -71 129 -71 292s4 225 71 292c44 44 104 70 178 70s133 -26 177 -70c67 -67 72 -129 72 -292zM498 356c0 146 -5 198 -50 244c-33 33 -75 50 -123 50s-90 -17 -123 -50
c-45 -46 -50 -98 -50 -244s5 -198 50 -244c33 -33 75 -50 123 -50s90 17 123 50c45 46 50 98 50 244zM376 780h-69l-105 154h83z" />
    <glyph glyph-name="oacute" unicode="&#xf3;" 
d="M574 356c0 -163 -5 -225 -72 -292c-44 -44 -103 -70 -177 -70s-134 26 -178 70c-67 67 -71 129 -71 292s4 225 71 292c44 44 104 70 178 70s133 -26 177 -70c67 -67 72 -129 72 -292zM498 356c0 146 -5 198 -50 244c-33 33 -75 50 -123 50s-90 -17 -123 -50
c-45 -46 -50 -98 -50 -244s5 -198 50 -244c33 -33 75 -50 123 -50s90 17 123 50c45 46 50 98 50 244zM448 934l-105 -154h-69l91 154h83z" />
    <glyph glyph-name="ocircumflex" unicode="&#xf4;" 
d="M574 356c0 -163 -5 -225 -72 -292c-44 -44 -103 -70 -177 -70s-134 26 -178 70c-67 67 -71 129 -71 292s4 225 71 292c44 44 104 70 178 70s133 -26 177 -70c67 -67 72 -129 72 -292zM498 356c0 146 -5 198 -50 244c-33 33 -75 50 -123 50s-90 -17 -123 -50
c-45 -46 -50 -98 -50 -244s5 -198 50 -244c33 -33 75 -50 123 -50s90 17 123 50c45 46 50 98 50 244zM484 780h-69l-90 105l-91 -105h-69l126 153h68z" />
    <glyph glyph-name="otilde" unicode="&#xf5;" 
d="M574 356c0 -163 -5 -225 -72 -292c-44 -44 -103 -70 -177 -70s-134 26 -178 70c-67 67 -71 129 -71 292s4 225 71 292c44 44 104 70 178 70s133 -26 177 -70c67 -67 72 -129 72 -292zM498 356c0 146 -5 198 -50 244c-33 33 -75 50 -123 50s-90 -17 -123 -50
c-45 -46 -50 -98 -50 -244s5 -198 50 -244c33 -33 75 -50 123 -50s90 17 123 50c45 46 50 98 50 244zM482 844c-46 -45 -72 -50 -95 -50c-29 0 -47 9 -71 23c-19 11 -36 21 -56 21c-17 0 -30 -3 -59 -32l-37 36c45 45 71 51 95 51c29 0 46 -8 71 -24c21 -13 36 -20 56 -20
c15 0 29 2 59 32z" />
    <glyph glyph-name="odieresis" unicode="&#xf6;" 
d="M574 356c0 -163 -5 -225 -72 -292c-44 -44 -103 -70 -177 -70s-134 26 -178 70c-67 67 -71 129 -71 292s4 225 71 292c44 44 104 70 178 70s133 -26 177 -70c67 -67 72 -129 72 -292zM498 356c0 146 -5 198 -50 244c-33 33 -75 50 -123 50s-90 -17 -123 -50
c-45 -46 -50 -98 -50 -244s5 -198 50 -244c33 -33 75 -50 123 -50s90 17 123 50c45 46 50 98 50 244zM467 789h-72v89h72v-89zM255 789h-72v89h72v-89z" />
    <glyph glyph-name="divide" unicode="&#xf7;" horiz-adv-x="522" 
d="M471 236h-420v67h420v-67zM304 49h-86v86h86v-86zM304 404h-86v86h86v-86z" />
    <glyph glyph-name="oslash" unicode="&#xf8;" 
d="M574 356c0 -163 -3 -223 -72 -292c-44 -44 -103 -70 -177 -70c-49 0 -90 11 -126 31l-33 -69h-65l50 104c-71 69 -75 130 -75 296c0 163 4 225 71 292c44 44 104 70 178 70c48 0 92 -11 125 -31l34 69h65l-50 -105c72 -70 75 -132 75 -295zM152 356
c0 -127 4 -184 35 -226l234 492c-26 18 -60 28 -96 28c-48 0 -91 -17 -123 -50c-45 -46 -50 -98 -50 -244zM498 356c0 127 -4 183 -35 226l-234 -492c27 -18 60 -28 96 -28c48 0 90 17 123 50c45 46 50 98 50 244z" />
    <glyph glyph-name="ugrave" unicode="&#xf9;" horiz-adv-x="683" 
d="M590 235c0 -142 -105 -241 -249 -241s-248 99 -248 241v477h76v-471c0 -108 68 -179 172 -179s173 71 173 179v471h76v-477zM392 780h-69l-105 154h83z" />
    <glyph glyph-name="uacute" unicode="&#xfa;" horiz-adv-x="683" 
d="M590 235c0 -142 -105 -241 -249 -241s-248 99 -248 241v477h76v-471c0 -108 68 -179 172 -179s173 71 173 179v471h76v-477zM464 934l-105 -154h-69l91 154h83z" />
    <glyph glyph-name="ucircumflex" unicode="&#xfb;" horiz-adv-x="683" 
d="M590 235c0 -142 -105 -241 -249 -241s-248 99 -248 241v477h76v-471c0 -108 68 -179 172 -179s173 71 173 179v471h76v-477zM500 780h-69l-90 105l-91 -105h-69l126 153h68z" />
    <glyph glyph-name="udieresis" unicode="&#xfc;" horiz-adv-x="683" 
d="M590 235c0 -142 -105 -241 -249 -241s-248 99 -248 241v477h76v-471c0 -108 68 -179 172 -179s173 71 173 179v471h76v-477zM483 789h-72v89h72v-89zM271 789h-72v89h72v-89z" />
    <glyph glyph-name="yacute" unicode="&#xfd;" horiz-adv-x="514" 
d="M506 712l-210 -418v-294h-76v294l-212 418h82l168 -341l166 341h82zM380 934l-105 -154h-69l91 154h83z" />
    <glyph glyph-name="thorn" unicode="&#xfe;" horiz-adv-x="642" 
d="M588 359c0 -128 -90 -209 -220 -209h-189v-150h-76v712h76v-143h189c130 0 220 -82 220 -210zM512 359c0 94 -62 141 -151 141h-182v-282h182c89 0 151 47 151 141z" />
    <glyph glyph-name="ydieresis" unicode="&#xff;" horiz-adv-x="447" 
d="M436 492l-224 -611c-10 -27 -21 -45 -35 -58c-26 -25 -61 -34 -96 -34h-31v64h22c50 0 65 16 81 61l35 96l-177 482h78l135 -395l134 395h78zM366 602h-72v89h72v-89zM154 602h-72v89h72v-89z" />
    <glyph glyph-name="Amacron" unicode="&#x100;" horiz-adv-x="611" 
d="M599 0h-81l-57 161h-311l-57 -161h-81l262 712h64zM439 227l-132 376l-134 -376h266zM154 798v57h301v-57h-301z" />
    <glyph glyph-name="amacron" unicode="&#x101;" horiz-adv-x="611" 
d="M568 0h-80l-188 604l-190 -604h-80l234 712h70zM154 798v57h301v-57h-301z" />
    <glyph glyph-name="Abreve" unicode="&#x102;" horiz-adv-x="611" 
d="M599 0h-81l-57 161h-311l-57 -161h-81l262 712h64zM439 227l-132 376l-134 -376h266zM472 933c-8 -91 -63 -139 -165 -139s-157 48 -165 139h56c7 -53 48 -83 109 -83s102 30 109 83h56z" />
    <glyph glyph-name="abreve" unicode="&#x103;" horiz-adv-x="611" 
d="M568 0h-80l-188 604l-190 -604h-80l234 712h70zM472 933c-8 -91 -63 -139 -165 -139s-157 48 -165 139h56c7 -53 48 -83 109 -83s102 30 109 83h56z" />
    <glyph glyph-name="Aogonek" unicode="&#x104;" horiz-adv-x="611" 
d="M599 0h-81l-57 161h-311l-57 -161h-81l262 712h64zM439 227l-132 376l-134 -376h266zM585 -67l-59 -149h-79l71 149h67z" />
    <glyph glyph-name="aogonek" unicode="&#x105;" horiz-adv-x="611" 
d="M568 0h-80l-188 604l-190 -604h-80l234 712h70zM585 -67l-59 -149h-79l71 149h67z" />
    <glyph glyph-name="Cacute" unicode="&#x106;" horiz-adv-x="637" 
d="M572 206c-25 -133 -119 -212 -247 -212c-74 0 -134 26 -178 70c-67 67 -71 129 -71 292s4 225 71 292c44 44 104 70 178 70c129 0 222 -79 247 -212h-78c-19 88 -80 144 -169 144c-48 0 -90 -17 -123 -50c-45 -46 -50 -98 -50 -244s5 -198 50 -244c33 -33 75 -50 123 -50
c89 0 152 56 171 144h76zM441 934l-105 -154h-69l91 154h83z" />
    <glyph glyph-name="cacute" unicode="&#x107;" horiz-adv-x="637" 
d="M572 206c-25 -133 -119 -212 -247 -212c-74 0 -134 26 -178 70c-67 67 -71 129 -71 292s4 225 71 292c44 44 104 70 178 70c129 0 222 -79 247 -212h-78c-19 88 -80 144 -169 144c-48 0 -90 -17 -123 -50c-45 -46 -50 -98 -50 -244s5 -198 50 -244c33 -33 75 -50 123 -50
c89 0 152 56 171 144h76zM441 934l-105 -154h-69l91 154h83z" />
    <glyph glyph-name="Ccircumflex" unicode="&#x108;" horiz-adv-x="637" 
d="M572 206c-25 -133 -119 -212 -247 -212c-74 0 -134 26 -178 70c-67 67 -71 129 -71 292s4 225 71 292c44 44 104 70 178 70c129 0 222 -79 247 -212h-78c-19 88 -80 144 -169 144c-48 0 -90 -17 -123 -50c-45 -46 -50 -98 -50 -244s5 -198 50 -244c33 -33 75 -50 123 -50
c89 0 152 56 171 144h76zM484 780h-69l-90 105l-91 -105h-69l126 153h68z" />
    <glyph glyph-name="ccircumflex" unicode="&#x109;" horiz-adv-x="637" 
d="M572 206c-25 -133 -119 -212 -247 -212c-74 0 -134 26 -178 70c-67 67 -71 129 -71 292s4 225 71 292c44 44 104 70 178 70c129 0 222 -79 247 -212h-78c-19 88 -80 144 -169 144c-48 0 -90 -17 -123 -50c-45 -46 -50 -98 -50 -244s5 -198 50 -244c33 -33 75 -50 123 -50
c89 0 152 56 171 144h76zM484 780h-69l-90 105l-91 -105h-69l126 153h68z" />
    <glyph glyph-name="Cdotaccent" unicode="&#x10a;" horiz-adv-x="637" 
d="M572 206c-25 -133 -119 -212 -247 -212c-74 0 -134 26 -178 70c-67 67 -71 129 -71 292s4 225 71 292c44 44 104 70 178 70c129 0 222 -79 247 -212h-78c-19 88 -80 144 -169 144c-48 0 -90 -17 -123 -50c-45 -46 -50 -98 -50 -244s5 -198 50 -244c33 -33 75 -50 123 -50
c89 0 152 56 171 144h76zM286 797v76h75v-76h-75z" />
    <glyph glyph-name="cdotaccent" unicode="&#x10b;" horiz-adv-x="637" 
d="M572 206c-25 -133 -119 -212 -247 -212c-74 0 -134 26 -178 70c-67 67 -71 129 -71 292s4 225 71 292c44 44 104 70 178 70c129 0 222 -79 247 -212h-78c-19 88 -80 144 -169 144c-48 0 -90 -17 -123 -50c-45 -46 -50 -98 -50 -244s5 -198 50 -244c33 -33 75 -50 123 -50
c89 0 152 56 171 144h76zM286 797v76h75v-76h-75z" />
    <glyph glyph-name="Ccaron" unicode="&#x10c;" horiz-adv-x="637" 
d="M572 206c-25 -133 -119 -212 -247 -212c-74 0 -134 26 -178 70c-67 67 -71 129 -71 292s4 225 71 292c44 44 104 70 178 70c129 0 222 -79 247 -212h-78c-19 88 -80 144 -169 144c-48 0 -90 -17 -123 -50c-45 -46 -50 -98 -50 -244s5 -198 50 -244c33 -33 75 -50 123 -50
c89 0 152 56 171 144h76zM478 933l-126 -153h-68l-125 153h69l90 -104l91 104h69z" />
    <glyph glyph-name="ccaron" unicode="&#x10d;" horiz-adv-x="637" 
d="M572 206c-25 -133 -119 -212 -247 -212c-74 0 -134 26 -178 70c-67 67 -71 129 -71 292s4 225 71 292c44 44 104 70 178 70c129 0 222 -79 247 -212h-78c-19 88 -80 144 -169 144c-48 0 -90 -17 -123 -50c-45 -46 -50 -98 -50 -244s5 -198 50 -244c33 -33 75 -50 123 -50
c89 0 152 56 171 144h76zM478 933l-126 -153h-68l-125 153h69l90 -104l91 104h69z" />
    <glyph glyph-name="Dcaron" unicode="&#x10e;" horiz-adv-x="673" 
d="M597 356c0 -109 0 -213 -63 -281c-48 -52 -107 -75 -187 -75h-244v712h244c80 0 139 -23 187 -75c63 -68 63 -172 63 -281zM521 356c0 99 -1 187 -47 236c-36 40 -86 52 -140 52h-155v-576h155c54 0 104 12 140 52c46 49 47 137 47 236zM496 933l-126 -153h-68l-125 153
h69l90 -104l91 104h69z" />
    <glyph glyph-name="dcaron" unicode="&#x10f;" horiz-adv-x="673" 
d="M103 68h231c54 0 104 12 140 52c46 49 47 137 47 236s-1 187 -47 236c-36 40 -86 52 -140 52h-231v68h244c80 0 139 -23 187 -75c63 -68 63 -172 63 -281s0 -213 -63 -281c-48 -52 -107 -75 -187 -75h-244v68zM496 933l-126 -153h-68l-125 153h69l90 -104l91 104h69z" />
    <glyph glyph-name="Dcroat" unicode="&#x110;" horiz-adv-x="687" 
d="M611 356c0 -109 -2 -214 -63 -281c-48 -52 -107 -75 -187 -75h-244v330h-78v59h78v323h244c80 0 139 -23 187 -75c63 -68 63 -172 63 -281zM535 356c0 99 -1 187 -47 236c-36 40 -86 52 -140 52h-155v-255h162v-59h-162v-262h155c54 0 104 12 140 52c46 49 47 137 47 236
z" />
    <glyph glyph-name="dcroat" unicode="&#x111;" horiz-adv-x="673" 
d="M117 68h231c54 0 104 12 140 52c46 49 47 137 47 236s-1 187 -47 236c-36 40 -86 52 -140 52h-231v68h244c80 0 139 -23 187 -75c63 -68 63 -172 63 -281s0 -213 -63 -281c-48 -52 -107 -75 -187 -75h-244v68zM39 330v59h316v-59h-316z" />
    <glyph glyph-name="Emacron" unicode="&#x112;" horiz-adv-x="600" 
d="M545 0h-442v712h442v-68h-366v-251h312v-68h-312v-257h366v-68zM161 798v57h301v-57h-301z" />
    <glyph glyph-name="emacron" unicode="&#x113;" horiz-adv-x="600" 
d="M103 712h442v-68h-442v68zM103 393h388v-68h-388v68zM103 68h442v-68h-442v68zM161 798v57h301v-57h-301z" />
    <glyph glyph-name="Ebreve" unicode="&#x114;" horiz-adv-x="600" 
d="M545 0h-442v712h442v-68h-366v-251h312v-68h-312v-257h366v-68zM478 933c-8 -91 -63 -139 -165 -139s-157 48 -165 139h56c7 -53 48 -83 109 -83s102 30 109 83h56z" />
    <glyph glyph-name="ebreve" unicode="&#x115;" horiz-adv-x="600" 
d="M103 712h442v-68h-442v68zM103 393h388v-68h-388v68zM103 68h442v-68h-442v68zM478 933c-8 -91 -63 -139 -165 -139s-157 48 -165 139h56c7 -53 48 -83 109 -83s102 30 109 83h56z" />
    <glyph glyph-name="Edotaccent" unicode="&#x116;" horiz-adv-x="600" 
d="M545 0h-442v712h442v-68h-366v-251h312v-68h-312v-257h366v-68zM274 797v76h75v-76h-75z" />
    <glyph glyph-name="edotaccent" unicode="&#x117;" horiz-adv-x="600" 
d="M103 712h442v-68h-442v68zM103 393h388v-68h-388v68zM103 68h442v-68h-442v68zM274 797v76h75v-76h-75z" />
    <glyph glyph-name="Eogonek" unicode="&#x118;" horiz-adv-x="600" 
d="M545 0h-442v712h442v-68h-366v-251h312v-68h-312v-257h366v-68zM545 -67l-59 -149h-79l71 149h67z" />
    <glyph glyph-name="eogonek" unicode="&#x119;" horiz-adv-x="600" 
d="M103 712h442v-68h-442v68zM103 393h388v-68h-388v68zM103 68h442v-68h-442v68zM545 -67l-59 -149h-79l71 149h67z" />
    <glyph glyph-name="Ecaron" unicode="&#x11a;" horiz-adv-x="600" 
d="M545 0h-442v712h442v-68h-366v-251h312v-68h-312v-257h366v-68zM471 933l-126 -153h-68l-125 153h69l90 -104l91 104h69z" />
    <glyph glyph-name="ecaron" unicode="&#x11b;" horiz-adv-x="600" 
d="M103 712h442v-68h-442v68zM103 393h388v-68h-388v68zM103 68h442v-68h-442v68zM471 933l-126 -153h-68l-125 153h69l90 -104l91 104h69z" />
    <glyph glyph-name="Gcircumflex" unicode="&#x11c;" 
d="M576 259c0 -82 -15 -132 -61 -183c-50 -55 -117 -82 -190 -82c-74 0 -134 26 -178 70c-67 67 -71 129 -71 292s4 225 71 292c44 44 104 70 178 70c134 0 229 -90 249 -213h-76c-20 91 -84 145 -173 145c-49 0 -91 -17 -123 -50c-45 -46 -50 -98 -50 -244s5 -198 50 -244
c32 -33 74 -50 123 -50c52 0 102 21 135 61c29 36 40 75 40 129v55h-175v65h251v-113zM484 780h-69l-90 105l-91 -105h-69l126 153h68z" />
    <glyph glyph-name="gcircumflex" unicode="&#x11d;" 
d="M576 259c0 -82 -15 -132 -61 -183c-50 -55 -117 -82 -190 -82c-74 0 -134 26 -178 70c-67 67 -71 129 -71 292s4 225 71 292c44 44 104 70 178 70c134 0 229 -90 249 -213h-76c-20 91 -84 145 -173 145c-49 0 -91 -17 -123 -50c-45 -46 -50 -98 -50 -244s5 -198 50 -244
c32 -33 74 -50 123 -50c52 0 102 21 135 61c29 36 40 75 40 129v55h-175v65h251v-113zM484 780h-69l-90 105l-91 -105h-69l126 153h68z" />
    <glyph glyph-name="Gbreve" unicode="&#x11e;" 
d="M576 259c0 -82 -15 -132 -61 -183c-50 -55 -117 -82 -190 -82c-74 0 -134 26 -178 70c-67 67 -71 129 -71 292s4 225 71 292c44 44 104 70 178 70c134 0 229 -90 249 -213h-76c-20 91 -84 145 -173 145c-49 0 -91 -17 -123 -50c-45 -46 -50 -98 -50 -244s5 -198 50 -244
c32 -33 74 -50 123 -50c52 0 102 21 135 61c29 36 40 75 40 129v55h-175v65h251v-113zM490 933c-8 -91 -63 -139 -165 -139s-157 48 -165 139h56c7 -53 48 -83 109 -83s102 30 109 83h56z" />
    <glyph glyph-name="gbreve" unicode="&#x11f;" 
d="M576 259c0 -82 -15 -132 -61 -183c-50 -55 -117 -82 -190 -82c-74 0 -134 26 -178 70c-67 67 -71 129 -71 292s4 225 71 292c44 44 104 70 178 70c134 0 229 -90 249 -213h-76c-20 91 -84 145 -173 145c-49 0 -91 -17 -123 -50c-45 -46 -50 -98 -50 -244s5 -198 50 -244
c32 -33 74 -50 123 -50c52 0 102 21 135 61c29 36 40 75 40 129v55h-175v65h251v-113zM490 933c-8 -91 -63 -139 -165 -139s-157 48 -165 139h56c7 -53 48 -83 109 -83s102 30 109 83h56z" />
    <glyph glyph-name="Gdotaccent" unicode="&#x120;" 
d="M576 259c0 -82 -15 -132 -61 -183c-50 -55 -117 -82 -190 -82c-74 0 -134 26 -178 70c-67 67 -71 129 -71 292s4 225 71 292c44 44 104 70 178 70c134 0 229 -90 249 -213h-76c-20 91 -84 145 -173 145c-49 0 -91 -17 -123 -50c-45 -46 -50 -98 -50 -244s5 -198 50 -244
c32 -33 74 -50 123 -50c52 0 102 21 135 61c29 36 40 75 40 129v55h-175v65h251v-113zM286 797v76h75v-76h-75z" />
    <glyph glyph-name="gdotaccent" unicode="&#x121;" 
d="M576 259c0 -82 -15 -132 -61 -183c-50 -55 -117 -82 -190 -82c-74 0 -134 26 -178 70c-67 67 -71 129 -71 292s4 225 71 292c44 44 104 70 178 70c134 0 229 -90 249 -213h-76c-20 91 -84 145 -173 145c-49 0 -91 -17 -123 -50c-45 -46 -50 -98 -50 -244s5 -198 50 -244
c32 -33 74 -50 123 -50c52 0 102 21 135 61c29 36 40 75 40 129v55h-175v65h251v-113zM286 797v76h75v-76h-75z" />
    <glyph glyph-name="Gcommaaccent" unicode="&#x122;" 
d="M576 259c0 -82 -15 -132 -61 -183c-50 -55 -117 -82 -190 -82c-74 0 -134 26 -178 70c-67 67 -71 129 -71 292s4 225 71 292c44 44 104 70 178 70c134 0 229 -90 249 -213h-76c-20 91 -84 145 -173 145c-49 0 -91 -17 -123 -50c-45 -46 -50 -98 -50 -244s5 -198 50 -244
c32 -33 74 -50 123 -50c52 0 102 21 135 61c29 36 40 75 40 129v55h-175v65h251v-113zM329 -216h-78l71 149h66z" />
    <glyph glyph-name="gcommaaccent" unicode="&#x123;" 
d="M576 259c0 -82 -15 -132 -61 -183c-50 -55 -117 -82 -190 -82c-74 0 -134 26 -178 70c-67 67 -71 129 -71 292s4 225 71 292c44 44 104 70 178 70c134 0 229 -90 249 -213h-76c-20 91 -84 145 -173 145c-49 0 -91 -17 -123 -50c-45 -46 -50 -98 -50 -244s5 -198 50 -244
c32 -33 74 -50 123 -50c52 0 102 21 135 61c29 36 40 75 40 129v55h-175v65h251v-113zM329 -216h-78l71 149h66z" />
    <glyph glyph-name="Hcircumflex" unicode="&#x124;" horiz-adv-x="696" 
d="M593 0h-76v325h-338v-325h-76v712h76v-319h338v319h76v-712zM507 780h-69l-90 105l-91 -105h-69l126 153h68z" />
    <glyph glyph-name="hcircumflex" unicode="&#x125;" horiz-adv-x="696" 
d="M179 0h-76v712h76v-712zM517 712h76v-712h-76v712zM507 780h-69l-90 105l-91 -105h-69l126 153h68z" />
    <glyph glyph-name="Hbar" unicode="&#x126;" horiz-adv-x="718" 
d="M678 515h-74v-515h-76v325h-338v-325h-76v515h-74v58h74v139h76v-139h338v139h76v-139h74v-58zM528 393v122h-338v-122h338z" />
    <glyph glyph-name="hbar" unicode="&#x127;" horiz-adv-x="718" 
d="M528 515h-338v-515h-76v515h-74v58h74v139h76v-139h338v139h76v-139h74v-58h-74v-515h-76v515z" />
    <glyph glyph-name="Itilde" unicode="&#x128;" horiz-adv-x="282" 
d="M179 0h-76v712h76v-712zM298 844c-46 -45 -72 -50 -95 -50c-29 0 -47 9 -71 23c-19 11 -36 21 -56 21c-17 0 -30 -3 -59 -32l-37 36c45 45 71 51 95 51c29 0 46 -8 71 -24c21 -13 36 -20 56 -20c15 0 29 2 59 32z" />
    <glyph glyph-name="itilde" unicode="&#x129;" horiz-adv-x="282" 
d="M179 0h-76v712h76v-712zM298 844c-46 -45 -72 -50 -95 -50c-29 0 -47 9 -71 23c-19 11 -36 21 -56 21c-17 0 -30 -3 -59 -32l-37 36c45 45 71 51 95 51c29 0 46 -8 71 -24c21 -13 36 -20 56 -20c15 0 29 2 59 32z" />
    <glyph glyph-name="Imacron" unicode="&#x12a;" horiz-adv-x="282" 
d="M179 0h-76v712h76v-712zM-9 798v57h301v-57h-301z" />
    <glyph glyph-name="imacron" unicode="&#x12b;" horiz-adv-x="282" 
d="M179 0h-76v712h76v-712zM-9 798v57h301v-57h-301z" />
    <glyph glyph-name="Ibreve" unicode="&#x12c;" horiz-adv-x="282" 
d="M179 0h-76v712h76v-712zM305 933c-8 -91 -63 -139 -165 -139s-157 48 -165 139h56c7 -53 48 -83 109 -83s102 30 109 83h56z" />
    <glyph glyph-name="ibreve" unicode="&#x12d;" horiz-adv-x="282" 
d="M179 0h-76v712h76v-712zM305 933c-8 -91 -63 -139 -165 -139s-157 48 -165 139h56c7 -53 48 -83 109 -83s102 30 109 83h56z" />
    <glyph glyph-name="Iogonek" unicode="&#x12e;" horiz-adv-x="282" 
d="M179 0h-76v712h76v-712zM170 -67l-59 -149h-79l71 149h67z" />
    <glyph glyph-name="iogonek" unicode="&#x12f;" horiz-adv-x="282" 
d="M179 0h-76v712h76v-712zM170 -67l-59 -149h-79l71 149h67z" />
    <glyph glyph-name="Idotaccent" unicode="&#x130;" horiz-adv-x="282" 
d="M179 0h-76v712h76v-712zM103 797v76h75v-76h-75z" />
    <glyph glyph-name="dotlessi" unicode="&#x131;" horiz-adv-x="282" 
d="M179 0h-76v712h76v-712zM103 797v76h75v-76h-75z" />
    <glyph glyph-name="IJ" unicode="&#x132;" horiz-adv-x="783" 
d="M179 0h-76v712h76v-712zM690 216c0 -137 -92 -222 -222 -222c-68 0 -119 20 -163 64l51 51c26 -26 53 -47 112 -47c93 0 146 59 146 164v486h76v-496z" />
    <glyph glyph-name="ij" unicode="&#x133;" horiz-adv-x="783" 
d="M179 0h-76v712h76v-712zM690 216c0 -137 -92 -222 -222 -222c-68 0 -119 20 -163 64l51 51c26 -26 53 -47 112 -47c93 0 146 59 146 164v486h76v-496z" />
    <glyph glyph-name="Jcircumflex" unicode="&#x134;" horiz-adv-x="501" 
d="M408 216c0 -137 -92 -222 -222 -222c-68 0 -119 20 -163 64l51 51c26 -26 53 -47 112 -47c93 0 146 59 146 164v486h76v-496zM529 780h-69l-90 105l-91 -105h-69l126 153h68z" />
    <glyph glyph-name="jcircumflex" unicode="&#x135;" horiz-adv-x="501" 
d="M408 216c0 -137 -92 -222 -222 -222c-68 0 -119 20 -163 64l51 51c26 -26 53 -47 112 -47c93 0 146 59 146 164v486h76v-496zM529 780h-69l-90 105l-91 -105h-69l126 153h68z" />
    <glyph glyph-name="Kcommaaccent" unicode="&#x136;" 
d="M636 0h-90l-217 379l-150 -180v-199h-76v712h76v-409l332 409h93l-224 -275zM328 -216h-78l71 149h66z" />
    <glyph glyph-name="kcommaaccent" unicode="&#x137;" 
d="M636 0h-90l-217 379l-150 -180v-199h-76v712h76v-409l332 409h93l-224 -275zM328 -216h-78l71 149h66z" />
    <glyph glyph-name="kgreenlandic" unicode="&#x138;" horiz-adv-x="536" 
d="M503 0h-89l-156 252l-96 -110v-142h-72v492h72v-256l222 256h90l-167 -188z" />
    <glyph glyph-name="Lacute" unicode="&#x139;" horiz-adv-x="573" 
d="M543 0h-440v712h76v-644h364v-68zM275 934l-105 -154h-69l91 154h83z" />
    <glyph glyph-name="lacute" unicode="&#x13a;" horiz-adv-x="573" 
d="M543 0h-440v712h76v-644h364v-68zM275 934l-105 -154h-69l91 154h83z" />
    <glyph glyph-name="Lcommaaccent" unicode="&#x13b;" horiz-adv-x="573" 
d="M543 0h-440v712h76v-644h364v-68zM289 -216h-78l71 149h66z" />
    <glyph glyph-name="lcommaaccent" unicode="&#x13c;" horiz-adv-x="573" 
d="M543 0h-440v712h76v-644h364v-68zM289 -216h-78l71 149h66z" />
    <glyph glyph-name="Lcaron" unicode="&#x13d;" horiz-adv-x="573" 
d="M543 0h-440v712h76v-644h364v-68zM405 712l-51 -152h-58l39 152h70z" />
    <glyph glyph-name="lcaron" unicode="&#x13e;" horiz-adv-x="573" 
d="M543 0h-440v712h76v-644h364v-68zM405 712l-51 -152h-58l39 152h70z" />
    <glyph glyph-name="Ldot" unicode="&#x13f;" horiz-adv-x="573" 
d="M543 0h-440v712h76v-644h364v-68zM389 320v76h75v-76h-75z" />
    <glyph glyph-name="ldot" unicode="&#x140;" horiz-adv-x="573" 
d="M543 0h-440v712h76v-644h364v-68zM389 320v76h75v-76h-75z" />
    <glyph glyph-name="Lslash" unicode="&#x141;" horiz-adv-x="582" 
d="M552 0h-440v289l-73 -46v67l73 46v356h77v-308l154 98v-66l-154 -98v-270h363v-68z" />
    <glyph glyph-name="lslash" unicode="&#x142;" horiz-adv-x="582" 
d="M552 0h-440v289l-73 -46v67l73 46v356h77v-308l154 98v-66l-154 -98v-270h363v-68z" />
    <glyph glyph-name="Nacute" unicode="&#x143;" horiz-adv-x="732" 
d="M629 0h-72l-378 571v-571h-76v712h72l378 -569v569h76v-712zM489 934l-105 -154h-69l91 154h83z" />
    <glyph glyph-name="nacute" unicode="&#x144;" horiz-adv-x="732" 
d="M629 0h-72l-378 571v-571h-76v712h72l378 -569v569h76v-712zM489 934l-105 -154h-69l91 154h83z" />
    <glyph glyph-name="Ncommaaccent" unicode="&#x145;" horiz-adv-x="732" 
d="M629 0h-72l-378 571v-571h-76v712h72l378 -569v569h76v-712zM359 -216h-78l71 149h66z" />
    <glyph glyph-name="ncommaaccent" unicode="&#x146;" horiz-adv-x="732" 
d="M629 0h-72l-378 571v-571h-76v712h72l378 -569v569h76v-712zM359 -216h-78l71 149h66z" />
    <glyph glyph-name="Ncaron" unicode="&#x147;" horiz-adv-x="732" 
d="M629 0h-72l-378 571v-571h-76v712h72l378 -569v569h76v-712zM526 933l-126 -153h-68l-125 153h69l90 -104l91 104h69z" />
    <glyph glyph-name="ncaron" unicode="&#x148;" horiz-adv-x="732" 
d="M629 0h-72l-378 571v-571h-76v712h72l378 -569v569h76v-712zM526 933l-126 -153h-68l-125 153h69l90 -104l91 104h69z" />
    <glyph glyph-name="napostrophe" unicode="&#x149;" horiz-adv-x="562" 
d="M477 0h-72v303c0 87 -47 131 -121 131s-122 -45 -122 -131v-303h-72v492h72v-54c35 40 83 60 138 60c53 0 96 -16 126 -46c35 -34 51 -80 51 -137v-315zM90 594l-68 -65v190h68v-125z" />
    <glyph glyph-name="Eng" unicode="&#x14a;" horiz-adv-x="732" 
d="M629 -84c0 -75 -39 -132 -125 -132h-52v63h37c46 0 64 23 64 72v87l-374 565v-571h-76v712h72l378 -569v569h76v-796z" />
    <glyph glyph-name="eng" unicode="&#x14b;" horiz-adv-x="732" 
d="M629 -84c0 -75 -39 -132 -125 -132h-52v63h37c46 0 64 23 64 72v87l-374 565v-571h-76v712h72l378 -569v569h76v-796z" />
    <glyph glyph-name="Omacron" unicode="&#x14c;" 
d="M574 356c0 -163 -5 -225 -72 -292c-44 -44 -103 -70 -177 -70s-134 26 -178 70c-67 67 -71 129 -71 292s4 225 71 292c44 44 104 70 178 70s133 -26 177 -70c67 -67 72 -129 72 -292zM498 356c0 146 -5 198 -50 244c-33 33 -75 50 -123 50s-90 -17 -123 -50
c-45 -46 -50 -98 -50 -244s5 -198 50 -244c33 -33 75 -50 123 -50s90 17 123 50c45 46 50 98 50 244zM173 798v57h301v-57h-301z" />
    <glyph glyph-name="omacron" unicode="&#x14d;" 
d="M574 356c0 -163 -5 -225 -72 -292c-44 -44 -103 -70 -177 -70s-134 26 -178 70c-67 67 -71 129 -71 292s4 225 71 292c44 44 104 70 178 70s133 -26 177 -70c67 -67 72 -129 72 -292zM498 356c0 146 -5 198 -50 244c-33 33 -75 50 -123 50s-90 -17 -123 -50
c-45 -46 -50 -98 -50 -244s5 -198 50 -244c33 -33 75 -50 123 -50s90 17 123 50c45 46 50 98 50 244zM173 798v57h301v-57h-301z" />
    <glyph glyph-name="Obreve" unicode="&#x14e;" 
d="M574 356c0 -163 -5 -225 -72 -292c-44 -44 -103 -70 -177 -70s-134 26 -178 70c-67 67 -71 129 -71 292s4 225 71 292c44 44 104 70 178 70s133 -26 177 -70c67 -67 72 -129 72 -292zM498 356c0 146 -5 198 -50 244c-33 33 -75 50 -123 50s-90 -17 -123 -50
c-45 -46 -50 -98 -50 -244s5 -198 50 -244c33 -33 75 -50 123 -50s90 17 123 50c45 46 50 98 50 244zM490 933c-8 -91 -63 -139 -165 -139s-157 48 -165 139h56c7 -53 48 -83 109 -83s102 30 109 83h56z" />
    <glyph glyph-name="obreve" unicode="&#x14f;" 
d="M574 356c0 -163 -5 -225 -72 -292c-44 -44 -103 -70 -177 -70s-134 26 -178 70c-67 67 -71 129 -71 292s4 225 71 292c44 44 104 70 178 70s133 -26 177 -70c67 -67 72 -129 72 -292zM498 356c0 146 -5 198 -50 244c-33 33 -75 50 -123 50s-90 -17 -123 -50
c-45 -46 -50 -98 -50 -244s5 -198 50 -244c33 -33 75 -50 123 -50s90 17 123 50c45 46 50 98 50 244zM490 933c-8 -91 -63 -139 -165 -139s-157 48 -165 139h56c7 -53 48 -83 109 -83s102 30 109 83h56z" />
    <glyph glyph-name="Ohungarumlaut" unicode="&#x150;" 
d="M574 356c0 -163 -5 -225 -72 -292c-44 -44 -103 -70 -177 -70s-134 26 -178 70c-67 67 -71 129 -71 292s4 225 71 292c44 44 104 70 178 70s133 -26 177 -70c67 -67 72 -129 72 -292zM498 356c0 146 -5 198 -50 244c-33 33 -75 50 -123 50s-90 -17 -123 -50
c-45 -46 -50 -98 -50 -244s5 -198 50 -244c33 -33 75 -50 123 -50s90 17 123 50c45 46 50 98 50 244zM379 934l-108 -153h-66l89 153h85zM542 934l-109 -153h-65l89 153h85z" />
    <glyph glyph-name="ohungarumlaut" unicode="&#x151;" 
d="M574 356c0 -163 -5 -225 -72 -292c-44 -44 -103 -70 -177 -70s-134 26 -178 70c-67 67 -71 129 -71 292s4 225 71 292c44 44 104 70 178 70s133 -26 177 -70c67 -67 72 -129 72 -292zM498 356c0 146 -5 198 -50 244c-33 33 -75 50 -123 50s-90 -17 -123 -50
c-45 -46 -50 -98 -50 -244s5 -198 50 -244c33 -33 75 -50 123 -50s90 17 123 50c45 46 50 98 50 244zM379 934l-108 -153h-66l89 153h85zM542 934l-109 -153h-65l89 153h85z" />
    <glyph glyph-name="OE" unicode="&#x152;" horiz-adv-x="989" 
d="M324 -6c-74 0 -133 26 -177 70c-67 67 -71 129 -71 292s4 225 71 292c44 44 103 70 177 70c70 0 129 -26 173 -80v74h434v-67h-358v-254h305v-64h-305v-260h358v-67h-434v74c-44 -54 -108 -80 -173 -80zM325 62c47 0 92 19 123 51c45 46 49 94 49 243s-4 197 -49 243
c-31 32 -76 51 -123 51c-48 0 -91 -17 -123 -50c-45 -46 -50 -98 -50 -244s5 -198 50 -244c32 -33 75 -50 123 -50z" />
    <glyph glyph-name="oe" unicode="&#x153;" 
d="M573 712h358v-68h-358v68zM583 393h294v-68h-294v68zM573 68h358v-68h-358v68zM574 356c0 -163 -5 -225 -72 -292c-44 -44 -103 -70 -177 -70s-134 26 -178 70c-67 67 -71 129 -71 292s4 225 71 292c44 44 104 70 178 70s133 -26 177 -70c67 -67 72 -129 72 -292z
M498 356c0 146 -5 198 -50 244c-33 33 -75 50 -123 50s-90 -17 -123 -50c-45 -46 -50 -98 -50 -244s5 -198 50 -244c33 -33 75 -50 123 -50s90 17 123 50c45 46 50 98 50 244z" />
    <glyph glyph-name="Racute" unicode="&#x154;" horiz-adv-x="656" 
d="M601 0h-89l-162 316h-171v-316h-76v712h273c124 0 211 -75 211 -198c0 -104 -63 -172 -155 -191zM511 513c0 87 -59 131 -142 131h-190v-261h190c83 0 142 43 142 130zM451 934l-105 -154h-69l91 154h83z" />
    <glyph glyph-name="racute" unicode="&#x155;" horiz-adv-x="656" 
d="M103 383h266c83 0 142 43 142 130s-59 131 -142 131h-266v68h273c124 0 211 -75 211 -198c0 -104 -63 -172 -155 -191l169 -323h-89l-162 316h-171v-316h-76v383zM451 934l-105 -154h-69l91 154h83z" />
    <glyph glyph-name="Rcommaaccent" unicode="&#x156;" horiz-adv-x="656" 
d="M601 0h-89l-162 316h-171v-316h-76v712h273c124 0 211 -75 211 -198c0 -104 -63 -172 -155 -191zM511 513c0 87 -59 131 -142 131h-190v-261h190c83 0 142 43 142 130zM331 -216h-78l71 149h66z" />
    <glyph glyph-name="rcommaaccent" unicode="&#x157;" horiz-adv-x="656" 
d="M103 383h266c83 0 142 43 142 130s-59 131 -142 131h-266v68h273c124 0 211 -75 211 -198c0 -104 -63 -172 -155 -191l169 -323h-89l-162 316h-171v-316h-76v383zM331 -216h-78l71 149h66z" />
    <glyph glyph-name="Rcaron" unicode="&#x158;" horiz-adv-x="656" 
d="M601 0h-89l-162 316h-171v-316h-76v712h273c124 0 211 -75 211 -198c0 -104 -63 -172 -155 -191zM511 513c0 87 -59 131 -142 131h-190v-261h190c83 0 142 43 142 130zM488 933l-126 -153h-68l-125 153h69l90 -104l91 104h69z" />
    <glyph glyph-name="rcaron" unicode="&#x159;" horiz-adv-x="656" 
d="M103 383h266c83 0 142 43 142 130s-59 131 -142 131h-266v68h273c124 0 211 -75 211 -198c0 -104 -63 -172 -155 -191l169 -323h-89l-162 316h-171v-316h-76v383zM488 933l-126 -153h-68l-125 153h69l90 -104l91 104h69z" />
    <glyph glyph-name="Sacute" unicode="&#x15a;" horiz-adv-x="588" 
d="M532 196c0 -125 -97 -202 -246 -202c-106 0 -177 27 -243 94l51 51c59 -59 114 -77 194 -77c105 0 169 48 169 132c0 38 -11 68 -35 89c-22 20 -42 27 -93 35l-83 12c-56 9 -98 26 -130 54c-36 32 -55 76 -55 134c0 121 87 200 228 200c91 0 151 -24 212 -78l-49 -49
c-43 41 -92 62 -166 62c-96 0 -151 -53 -151 -133c0 -35 10 -64 32 -83s56 -31 93 -37l83 -13c66 -10 97 -22 129 -51c38 -33 60 -81 60 -140zM417 934l-105 -154h-69l91 154h83z" />
    <glyph glyph-name="sacute" unicode="&#x15b;" horiz-adv-x="588" 
d="M532 196c0 -125 -97 -202 -246 -202c-106 0 -177 27 -243 94l51 51c59 -59 114 -77 194 -77c105 0 169 48 169 132c0 38 -11 68 -35 89c-22 20 -42 27 -93 35l-83 12c-56 9 -98 26 -130 54c-36 32 -55 76 -55 134c0 121 87 200 228 200c91 0 151 -24 212 -78l-49 -49
c-43 41 -92 62 -166 62c-96 0 -151 -53 -151 -133c0 -35 10 -64 32 -83s56 -31 93 -37l83 -13c66 -10 97 -22 129 -51c38 -33 60 -81 60 -140zM417 934l-105 -154h-69l91 154h83z" />
    <glyph glyph-name="Scircumflex" unicode="&#x15c;" horiz-adv-x="588" 
d="M532 196c0 -125 -97 -202 -246 -202c-106 0 -177 27 -243 94l51 51c59 -59 114 -77 194 -77c105 0 169 48 169 132c0 38 -11 68 -35 89c-22 20 -42 27 -93 35l-83 12c-56 9 -98 26 -130 54c-36 32 -55 76 -55 134c0 121 87 200 228 200c91 0 151 -24 212 -78l-49 -49
c-43 41 -92 62 -166 62c-96 0 -151 -53 -151 -133c0 -35 10 -64 32 -83s56 -31 93 -37l83 -13c66 -10 97 -22 129 -51c38 -33 60 -81 60 -140zM448 780h-69l-90 105l-91 -105h-69l126 153h68z" />
    <glyph glyph-name="scircumflex" unicode="&#x15d;" horiz-adv-x="588" 
d="M532 196c0 -125 -97 -202 -246 -202c-106 0 -177 27 -243 94l51 51c59 -59 114 -77 194 -77c105 0 169 48 169 132c0 38 -11 68 -35 89c-22 20 -42 27 -93 35l-83 12c-56 9 -98 26 -130 54c-36 32 -55 76 -55 134c0 121 87 200 228 200c91 0 151 -24 212 -78l-49 -49
c-43 41 -92 62 -166 62c-96 0 -151 -53 -151 -133c0 -35 10 -64 32 -83s56 -31 93 -37l83 -13c66 -10 97 -22 129 -51c38 -33 60 -81 60 -140zM448 780h-69l-90 105l-91 -105h-69l126 153h68z" />
    <glyph glyph-name="Scedilla" unicode="&#x15e;" horiz-adv-x="588" 
d="M532 196c0 -125 -97 -202 -246 -202c-106 0 -177 27 -243 94l51 51c59 -59 114 -77 194 -77c105 0 169 48 169 132c0 38 -11 68 -35 89c-22 20 -42 27 -93 35l-83 12c-56 9 -98 26 -130 54c-36 32 -55 76 -55 134c0 121 87 200 228 200c91 0 151 -24 212 -78l-49 -49
c-43 41 -92 62 -166 62c-96 0 -151 -53 -151 -133c0 -35 10 -64 32 -83s56 -31 93 -37l83 -13c66 -10 97 -22 129 -51c38 -33 60 -81 60 -140zM357 -67l-59 -149h-79l71 149h67z" />
    <glyph glyph-name="scedilla" unicode="&#x15f;" horiz-adv-x="588" 
d="M532 196c0 -125 -97 -202 -246 -202c-106 0 -177 27 -243 94l51 51c59 -59 114 -77 194 -77c105 0 169 48 169 132c0 38 -11 68 -35 89c-22 20 -42 27 -93 35l-83 12c-56 9 -98 26 -130 54c-36 32 -55 76 -55 134c0 121 87 200 228 200c91 0 151 -24 212 -78l-49 -49
c-43 41 -92 62 -166 62c-96 0 -151 -53 -151 -133c0 -35 10 -64 32 -83s56 -31 93 -37l83 -13c66 -10 97 -22 129 -51c38 -33 60 -81 60 -140zM357 -67l-59 -149h-79l71 149h67z" />
    <glyph glyph-name="Scaron" unicode="&#x160;" horiz-adv-x="588" 
d="M532 196c0 -125 -97 -202 -246 -202c-106 0 -177 27 -243 94l51 51c59 -59 114 -77 194 -77c105 0 169 48 169 132c0 38 -11 68 -35 89c-22 20 -42 27 -93 35l-83 12c-56 9 -98 26 -130 54c-36 32 -55 76 -55 134c0 121 87 200 228 200c91 0 151 -24 212 -78l-49 -49
c-43 41 -92 62 -166 62c-96 0 -151 -53 -151 -133c0 -35 10 -64 32 -83s56 -31 93 -37l83 -13c66 -10 97 -22 129 -51c38 -33 60 -81 60 -140zM449 933l-126 -153h-68l-125 153h69l90 -104l91 104h69z" />
    <glyph glyph-name="scaron" unicode="&#x161;" horiz-adv-x="588" 
d="M532 196c0 -125 -97 -202 -246 -202c-106 0 -177 27 -243 94l51 51c59 -59 114 -77 194 -77c105 0 169 48 169 132c0 38 -11 68 -35 89c-22 20 -42 27 -93 35l-83 12c-56 9 -98 26 -130 54c-36 32 -55 76 -55 134c0 121 87 200 228 200c91 0 151 -24 212 -78l-49 -49
c-43 41 -92 62 -166 62c-96 0 -151 -53 -151 -133c0 -35 10 -64 32 -83s56 -31 93 -37l83 -13c66 -10 97 -22 129 -51c38 -33 60 -81 60 -140zM449 933l-126 -153h-68l-125 153h69l90 -104l91 104h69z" />
    <glyph glyph-name="Tcommaaccent" unicode="&#x162;" horiz-adv-x="548" 
d="M518 644h-206v-644h-76v644h-206v68h488v-68zM308 -67l-59 -149h-79l71 149h67z" />
    <glyph glyph-name="tcommaaccent" unicode="&#x163;" horiz-adv-x="548" 
d="M518 644h-206v-644h-76v644h-206v68h488v-68zM308 -67l-59 -149h-79l71 149h67z" />
    <glyph glyph-name="Tcaron" unicode="&#x164;" horiz-adv-x="548" 
d="M518 644h-206v-644h-76v644h-206v68h488v-68zM434 933l-126 -153h-68l-125 153h69l90 -104l91 104h69z" />
    <glyph glyph-name="tcaron" unicode="&#x165;" horiz-adv-x="332" 
d="M279 0h-51c-84 0 -126 59 -126 132v305h-62v55h62v151h72v-151h105v-55h-105v-303c0 -45 21 -72 67 -72h38v-62zM345 719l-51 -152h-58l39 152h70z" />
    <glyph glyph-name="Tbar" unicode="&#x166;" horiz-adv-x="548" 
d="M518 644h-206v-255h120v-59h-120v-330h-76v330h-120v59h120v255h-206v68h488v-68z" />
    <glyph glyph-name="tbar" unicode="&#x167;" horiz-adv-x="548" 
d="M518 644h-206v-255h120v-59h-120v-330h-76v330h-120v59h120v255h-206v68h488v-68z" />
    <glyph glyph-name="Utilde" unicode="&#x168;" horiz-adv-x="683" 
d="M590 235c0 -142 -105 -241 -249 -241s-248 99 -248 241v477h76v-471c0 -108 68 -179 172 -179s173 71 173 179v471h76v-477zM500 844c-46 -45 -72 -50 -95 -50c-29 0 -47 9 -71 23c-19 11 -36 21 -56 21c-17 0 -30 -3 -59 -32l-37 36c45 45 71 51 95 51
c29 0 46 -8 71 -24c21 -13 36 -20 56 -20c15 0 29 2 59 32z" />
    <glyph glyph-name="utilde" unicode="&#x169;" horiz-adv-x="683" 
d="M590 235c0 -142 -105 -241 -249 -241s-248 99 -248 241v477h76v-471c0 -108 68 -179 172 -179s173 71 173 179v471h76v-477zM500 844c-46 -45 -72 -50 -95 -50c-29 0 -47 9 -71 23c-19 11 -36 21 -56 21c-17 0 -30 -3 -59 -32l-37 36c45 45 71 51 95 51
c29 0 46 -8 71 -24c21 -13 36 -20 56 -20c15 0 29 2 59 32z" />
    <glyph glyph-name="Umacron" unicode="&#x16a;" horiz-adv-x="683" 
d="M590 235c0 -142 -105 -241 -249 -241s-248 99 -248 241v477h76v-471c0 -108 68 -179 172 -179s173 71 173 179v471h76v-477zM190 798v57h301v-57h-301z" />
    <glyph glyph-name="umacron" unicode="&#x16b;" horiz-adv-x="683" 
d="M590 235c0 -142 -105 -241 -249 -241s-248 99 -248 241v477h76v-471c0 -108 68 -179 172 -179s173 71 173 179v471h76v-477zM190 798v57h301v-57h-301z" />
    <glyph glyph-name="Ubreve" unicode="&#x16c;" horiz-adv-x="683" 
d="M590 235c0 -142 -105 -241 -249 -241s-248 99 -248 241v477h76v-471c0 -108 68 -179 172 -179s173 71 173 179v471h76v-477zM506 933c-8 -91 -63 -139 -165 -139s-157 48 -165 139h56c7 -53 48 -83 109 -83s102 30 109 83h56z" />
    <glyph glyph-name="ubreve" unicode="&#x16d;" horiz-adv-x="683" 
d="M590 235c0 -142 -105 -241 -249 -241s-248 99 -248 241v477h76v-471c0 -108 68 -179 172 -179s173 71 173 179v471h76v-477zM506 933c-8 -91 -63 -139 -165 -139s-157 48 -165 139h56c7 -53 48 -83 109 -83s102 30 109 83h56z" />
    <glyph glyph-name="Uring" unicode="&#x16e;" horiz-adv-x="683" 
d="M590 235c0 -142 -105 -241 -249 -241s-248 99 -248 241v477h76v-471c0 -108 68 -179 172 -179s173 71 173 179v471h76v-477zM459 874c0 -65 -53 -119 -118 -119s-118 54 -118 119s53 118 118 118s118 -52 118 -118zM410 874c0 38 -31 68 -69 68s-69 -30 -69 -68
s31 -69 69 -69s69 31 69 69z" />
    <glyph glyph-name="uring" unicode="&#x16f;" horiz-adv-x="683" 
d="M590 235c0 -142 -105 -241 -249 -241s-248 99 -248 241v477h76v-471c0 -108 68 -179 172 -179s173 71 173 179v471h76v-477zM459 874c0 -65 -53 -119 -118 -119s-118 54 -118 119s53 118 118 118s118 -52 118 -118zM410 874c0 38 -31 68 -69 68s-69 -30 -69 -68
s31 -69 69 -69s69 31 69 69z" />
    <glyph glyph-name="Uhungarumlaut" unicode="&#x170;" horiz-adv-x="683" 
d="M590 235c0 -142 -105 -241 -249 -241s-248 99 -248 241v477h76v-471c0 -108 68 -179 172 -179s173 71 173 179v471h76v-477zM395 934l-108 -153h-66l89 153h85zM558 934l-109 -153h-65l89 153h85z" />
    <glyph glyph-name="uhungarumlaut" unicode="&#x171;" horiz-adv-x="683" 
d="M590 235c0 -142 -105 -241 -249 -241s-248 99 -248 241v477h76v-471c0 -108 68 -179 172 -179s173 71 173 179v471h76v-477zM395 934l-108 -153h-66l89 153h85zM558 934l-109 -153h-65l89 153h85z" />
    <glyph glyph-name="Uogonek" unicode="&#x172;" horiz-adv-x="683" 
d="M590 235c0 -142 -105 -241 -249 -241s-248 99 -248 241v477h76v-471c0 -108 68 -179 172 -179s173 71 173 179v471h76v-477zM478 -67l-59 -149h-79l71 149h67z" />
    <glyph glyph-name="uogonek" unicode="&#x173;" horiz-adv-x="683" 
d="M590 235c0 -142 -105 -241 -249 -241s-248 99 -248 241v477h76v-471c0 -108 68 -179 172 -179s173 71 173 179v471h76v-477zM478 -67l-59 -149h-79l71 149h67z" />
    <glyph glyph-name="Wcircumflex" unicode="&#x174;" horiz-adv-x="854" 
d="M838 712l-182 -712h-71l-158 570l-158 -570h-71l-182 712h81l139 -574l157 574h68l157 -574l139 574h81zM586 780h-69l-90 105l-91 -105h-69l126 153h68z" />
    <glyph glyph-name="wcircumflex" unicode="&#x175;" horiz-adv-x="854" 
d="M838 712l-182 -712h-71l-158 570l-158 -570h-71l-182 712h81l139 -574l157 574h68l157 -574l139 574h81zM586 780h-69l-90 105l-91 -105h-69l126 153h68z" />
    <glyph glyph-name="Ycircumflex" unicode="&#x176;" horiz-adv-x="514" 
d="M506 712l-210 -418v-294h-76v294l-212 418h82l168 -341l166 341h82zM416 780h-69l-90 105l-91 -105h-69l126 153h68z" />
    <glyph glyph-name="ycircumflex" unicode="&#x177;" horiz-adv-x="514" 
d="M506 712l-210 -418v-294h-76v294l-212 418h82l168 -341l166 341h82zM416 780h-69l-90 105l-91 -105h-69l126 153h68z" />
    <glyph glyph-name="Ydieresis" unicode="&#x178;" horiz-adv-x="514" 
d="M506 712l-210 -418v-294h-76v294l-212 418h82l168 -341l166 341h82zM399 789h-72v89h72v-89zM187 789h-72v89h72v-89z" />
    <glyph glyph-name="Zacute" unicode="&#x179;" horiz-adv-x="556" 
d="M499 0h-442v72l356 572h-342v68h428v-64l-359 -580h359v-68zM401 934l-105 -154h-69l91 154h83z" />
    <glyph glyph-name="zacute" unicode="&#x17a;" horiz-adv-x="556" 
d="M499 0h-442v72l356 572h-342v68h428v-64l-359 -580h359v-68zM401 934l-105 -154h-69l91 154h83z" />
    <glyph glyph-name="Zdotaccent" unicode="&#x17b;" horiz-adv-x="556" 
d="M499 0h-442v72l356 572h-342v68h428v-64l-359 -580h359v-68zM239 797v76h75v-76h-75z" />
    <glyph glyph-name="zdotaccent" unicode="&#x17c;" horiz-adv-x="556" 
d="M499 0h-442v72l356 572h-342v68h428v-64l-359 -580h359v-68zM239 797v76h75v-76h-75z" />
    <glyph glyph-name="Zcaron" unicode="&#x17d;" horiz-adv-x="556" 
d="M499 0h-442v72l356 572h-342v68h428v-64l-359 -580h359v-68zM444 933l-126 -153h-68l-125 153h69l90 -104l91 104h69z" />
    <glyph glyph-name="zcaron" unicode="&#x17e;" horiz-adv-x="556" 
d="M499 0h-442v72l356 572h-342v68h428v-64l-359 -580h359v-68zM444 933l-126 -153h-68l-125 153h69l90 -104l91 104h69z" />
    <glyph glyph-name="longs" unicode="&#x17f;" horiz-adv-x="252" 
d="M215 712h52v-62h-39c-50 0 -66 -24 -66 -72v-578h-72v581c0 75 39 131 125 131z" />
    <glyph glyph-name="uni018F" unicode="&#x18f;" 
d="M74 260v113h424c-1 135 -7 182 -50 226c-31 32 -76 51 -123 51c-89 0 -153 -55 -173 -145h-76c21 125 113 213 249 213c71 0 134 -26 182 -74c67 -67 67 -137 67 -288s0 -221 -67 -288c-48 -48 -112 -74 -182 -74c-73 0 -140 28 -190 82c-44 47 -61 102 -61 184zM150 306
v-54c0 -55 11 -94 40 -129c33 -40 83 -61 135 -61c47 0 92 18 123 50c39 40 48 83 50 194h-348z" />
    <glyph glyph-name="florin" unicode="&#x192;" horiz-adv-x="403" 
d="M373 652h-50c-46 0 -71 -27 -79 -72l-34 -196h105v-54h-115l-97 -550h-72l97 550h-98v54h108l34 198c13 73 65 132 149 132h52v-62z" />
    <glyph glyph-name="uni01B5" unicode="&#x1b5;" horiz-adv-x="556" 
d="M499 0h-442v72l160 258h-97v59h134l159 255h-342v68h428v-64l-161 -259h98v-59h-134l-162 -262h359v-68z" />
    <glyph glyph-name="uni01B6" unicode="&#x1b6;" horiz-adv-x="556" 
d="M499 0h-442v72l160 258h-97v59h134l159 255h-342v68h428v-64l-161 -259h98v-59h-134l-162 -262h359v-68z" />
    <glyph glyph-name="uni01C4" unicode="&#x1c4;" horiz-adv-x="1229" 
d="M597 356c0 -109 0 -213 -63 -281c-48 -52 -107 -75 -187 -75h-244v712h244c80 0 139 -23 187 -75c63 -68 63 -172 63 -281zM521 356c0 99 -1 187 -47 236c-36 40 -86 52 -140 52h-155v-576h155c54 0 104 12 140 52c46 49 47 137 47 236zM1172 0h-442v72l356 572h-342v68
h428v-64l-359 -580h359v-68zM1117 933l-126 -153h-68l-125 153h69l90 -104l91 104h69z" />
    <glyph glyph-name="uni01C5" unicode="&#x1c5;" horiz-adv-x="1132" 
d="M597 356c0 -109 0 -213 -63 -281c-48 -52 -107 -75 -187 -75h-244v712h244c80 0 139 -23 187 -75c63 -68 63 -172 63 -281zM521 356c0 99 -1 187 -47 236c-36 40 -86 52 -140 52h-155v-576h155c54 0 104 12 140 52c46 49 47 137 47 236zM1080 0h-357v62l274 366h-259v64
h342v-61l-275 -367h275v-64zM1068 747l-125 -153h-68l-126 153h69l91 -105l90 105h69z" />
    <glyph glyph-name="uni01C6" unicode="&#x1c6;" horiz-adv-x="1004" 
d="M455 0h-71v59c-41 -52 -84 -65 -140 -65c-51 0 -94 17 -120 43c-49 50 -60 130 -60 209s11 160 60 209c26 26 69 43 120 43c55 0 98 -12 139 -63v277h72v-712zM383 246c0 96 -16 188 -123 188c-108 0 -124 -92 -124 -188s16 -188 124 -188c107 0 123 92 123 188zM952 0
h-357v62l274 366h-259v64h342v-61l-275 -367h275v-64zM940 747l-125 -153h-68l-126 153h69l91 -105l90 105h69z" />
    <glyph glyph-name="uni01C7" unicode="&#x1c7;" horiz-adv-x="1074" 
d="M543 0h-440v712h76v-644h364v-68zM981 216c0 -137 -92 -222 -222 -222c-68 0 -119 20 -163 64l51 51c26 -26 53 -47 112 -47c93 0 146 59 146 164v486h76v-496z" />
    <glyph glyph-name="uni01C8" unicode="&#x1c8;" horiz-adv-x="826" 
d="M543 0h-440v712h76v-644h364v-68zM735 -89c0 -75 -39 -132 -125 -132h-52v63h39c50 0 66 24 66 72v578h72v-581zM740 632h-81v81h81v-81z" />
    <glyph glyph-name="uni01C9" unicode="&#x1c9;" horiz-adv-x="550" 
d="M265 0h-52c-86 0 -125 56 -125 131v581h72v-578c0 -48 16 -72 66 -72h39v-62zM459 -89c0 -75 -39 -132 -125 -132h-52v63h39c50 0 66 24 66 72v578h72v-581zM464 632h-81v81h81v-81z" />
    <glyph glyph-name="uni01CA" unicode="&#x1ca;" horiz-adv-x="1233" 
d="M629 0h-72l-378 571v-571h-76v712h72l378 -569v569h76v-712zM1140 216c0 -137 -92 -222 -222 -222c-68 0 -119 20 -163 64l51 51c26 -26 53 -47 112 -47c93 0 146 59 146 164v486h76v-496z" />
    <glyph glyph-name="uni01CB" unicode="&#x1cb;" horiz-adv-x="985" 
d="M629 0h-72l-378 571v-571h-76v712h72l378 -569v569h76v-712zM894 -89c0 -75 -39 -132 -125 -132h-52v63h39c50 0 66 24 66 72v578h72v-581zM899 632h-81v81h81v-81z" />
    <glyph glyph-name="uni01CC" unicode="&#x1cc;" horiz-adv-x="985" 
d="M629 0h-72l-378 571v-571h-76v712h72l378 -569v569h76v-712zM894 -89c0 -75 -39 -132 -125 -132h-52v63h39c50 0 66 24 66 72v578h72v-581zM899 632h-81v81h81v-81z" />
    <glyph glyph-name="uni01F1" unicode="&#x1f1;" horiz-adv-x="1229" 
d="M597 356c0 -109 0 -213 -63 -281c-48 -52 -107 -75 -187 -75h-244v712h244c80 0 139 -23 187 -75c63 -68 63 -172 63 -281zM521 356c0 99 -1 187 -47 236c-36 40 -86 52 -140 52h-155v-576h155c54 0 104 12 140 52c46 49 47 137 47 236zM1172 0h-442v72l356 572h-342v68
h428v-64l-359 -580h359v-68z" />
    <glyph glyph-name="uni01F2" unicode="&#x1f2;" horiz-adv-x="1229" 
d="M103 68h231c54 0 104 12 140 52c46 49 47 137 47 236s-1 187 -47 236c-36 40 -86 52 -140 52h-231v68h244c80 0 139 -23 187 -75c63 -68 63 -172 63 -281s0 -213 -63 -281c-48 -52 -107 -75 -187 -75h-244v68zM1172 0h-442v72l356 572h-342v68h428v-64l-359 -580h359v-68
z" />
    <glyph glyph-name="uni01F3" unicode="&#x1f3;" horiz-adv-x="1229" 
d="M103 68h231c54 0 104 12 140 52c46 49 47 137 47 236s-1 187 -47 236c-36 40 -86 52 -140 52h-231v68h244c80 0 139 -23 187 -75c63 -68 63 -172 63 -281s0 -213 -63 -281c-48 -52 -107 -75 -187 -75h-244v68zM1172 0h-442v72l356 572h-342v68h428v-64l-359 -580h359v-68
z" />
    <glyph glyph-name="Aringacute" unicode="&#x1fa;" horiz-adv-x="611" 
d="M599 0h-81l-57 161h-311l-57 -161h-81l262 712h64zM439 227l-132 376l-134 -376h266zM420 867c0 -65 -53 -119 -118 -119s-118 54 -118 119s53 118 118 118s118 -52 118 -118zM371 867c0 38 -31 68 -69 68s-69 -30 -69 -68s31 -69 69 -69s69 31 69 69zM425 1148
l-105 -154h-69l91 154h83z" />
    <glyph glyph-name="aringacute" unicode="&#x1fb;" horiz-adv-x="611" 
d="M568 0h-80l-188 604l-190 -604h-80l234 712h70zM420 867c0 -65 -53 -119 -118 -119s-118 54 -118 119s53 118 118 118s118 -52 118 -118zM371 867c0 38 -31 68 -69 68s-69 -30 -69 -68s31 -69 69 -69s69 31 69 69zM425 1148l-105 -154h-69l91 154h83z" />
    <glyph glyph-name="AEacute" unicode="&#x1fc;" horiz-adv-x="922" 
d="M867 0h-441v169h-247l-88 -169h-83l376 712h483v-68h-366v-253h312v-68h-312v-255h366v-68zM426 235v409l-214 -409h214zM598 934l-105 -154h-69l91 154h83z" />
    <glyph glyph-name="aeacute" unicode="&#x1fd;" horiz-adv-x="922" 
d="M426 0l-2 643l-333 -643h-83l376 712h483v-68h-366v-253h312v-68h-312v-255h366v-68h-441zM598 934l-105 -154h-69l91 154h83z" />
    <glyph glyph-name="Oslashacute" unicode="&#x1fe;" 
d="M574 356c0 -163 -3 -223 -72 -292c-44 -44 -103 -70 -177 -70c-49 0 -90 11 -126 31l-33 -69h-65l50 104c-71 69 -75 130 -75 296c0 163 4 225 71 292c44 44 104 70 178 70c48 0 92 -11 125 -31l34 69h65l-50 -105c72 -70 75 -132 75 -295zM152 356
c0 -127 4 -184 35 -226l234 492c-26 18 -60 28 -96 28c-48 0 -91 -17 -123 -50c-45 -46 -50 -98 -50 -244zM498 356c0 127 -4 183 -35 226l-234 -492c27 -18 60 -28 96 -28c48 0 90 17 123 50c45 46 50 98 50 244zM448 934l-105 -154h-69l91 154h83z" />
    <glyph glyph-name="oslashacute" unicode="&#x1ff;" 
d="M574 356c0 -163 -3 -223 -72 -292c-44 -44 -103 -70 -177 -70c-49 0 -90 11 -126 31l-33 -69h-65l50 104c-71 69 -75 130 -75 296c0 163 4 225 71 292c44 44 104 70 178 70c48 0 92 -11 125 -31l34 69h65l-50 -105c72 -70 75 -132 75 -295zM152 356
c0 -127 4 -184 35 -226l234 492c-26 18 -60 28 -96 28c-48 0 -91 -17 -123 -50c-45 -46 -50 -98 -50 -244zM498 356c0 127 -4 183 -35 226l-234 -492c27 -18 60 -28 96 -28c48 0 90 17 123 50c45 46 50 98 50 244zM448 934l-105 -154h-69l91 154h83z" />
    <glyph glyph-name="Scommaaccent" unicode="&#x218;" horiz-adv-x="588" 
d="M532 196c0 -125 -97 -202 -246 -202c-106 0 -177 27 -243 94l51 51c59 -59 114 -77 194 -77c105 0 169 48 169 132c0 38 -11 68 -35 89c-22 20 -42 27 -93 35l-83 12c-56 9 -98 26 -130 54c-36 32 -55 76 -55 134c0 121 87 200 228 200c91 0 151 -24 212 -78l-49 -49
c-43 41 -92 62 -166 62c-96 0 -151 -53 -151 -133c0 -35 10 -64 32 -83s56 -31 93 -37l83 -13c66 -10 97 -22 129 -51c38 -33 60 -81 60 -140zM283 -216h-78l71 149h66z" />
    <glyph glyph-name="scommaaccent" unicode="&#x219;" horiz-adv-x="588" 
d="M532 196c0 -125 -97 -202 -246 -202c-106 0 -177 27 -243 94l51 51c59 -59 114 -77 194 -77c105 0 169 48 169 132c0 38 -11 68 -35 89c-22 20 -42 27 -93 35l-83 12c-56 9 -98 26 -130 54c-36 32 -55 76 -55 134c0 121 87 200 228 200c91 0 151 -24 212 -78l-49 -49
c-43 41 -92 62 -166 62c-96 0 -151 -53 -151 -133c0 -35 10 -64 32 -83s56 -31 93 -37l83 -13c66 -10 97 -22 129 -51c38 -33 60 -81 60 -140zM283 -216h-78l71 149h66z" />
    <glyph glyph-name="uni021A" unicode="&#x21a;" horiz-adv-x="548" 
d="M518 644h-206v-644h-76v644h-206v68h488v-68zM249 -216h-78l71 149h66z" />
    <glyph glyph-name="uni021B" unicode="&#x21b;" horiz-adv-x="548" 
d="M518 644h-206v-644h-76v644h-206v68h488v-68zM249 -216h-78l71 149h66z" />
    <glyph glyph-name="uni0237" unicode="&#x237;" horiz-adv-x="253" 
d="M162 -89c0 -75 -39 -132 -125 -132h-52v63h39c50 0 66 24 66 72v578h72v-581z" />
    <glyph glyph-name="uni0259" unicode="&#x259;" horiz-adv-x="530" 
d="M63 265h332c0 108 -50 170 -145 170c-57 0 -90 -17 -129 -56l-49 43c50 50 97 76 180 76c131 0 215 -78 215 -252c0 -160 -77 -252 -202 -252c-128 0 -202 91 -202 239v32zM134 211c3 -40 4 -56 16 -82c21 -45 62 -74 115 -74s94 29 115 74c12 26 13 42 15 82h-261z" />
    <glyph glyph-name="uni02BB" unicode="&#x2bb;" horiz-adv-x="263" 
d="M175 628h-87v84l87 79v-163z" />
    <glyph glyph-name="afii57929" unicode="&#x2bc;" horiz-adv-x="263" 
d="M175 628l-87 -79v163h87v-84z" />
    <glyph glyph-name="circumflex" unicode="&#x2c6;" horiz-adv-x="500" 
d="M409 594h-69l-90 104l-90 -104h-69l125 153h68z" />
    <glyph glyph-name="caron" unicode="&#x2c7;" horiz-adv-x="500" 
d="M409 747l-125 -153h-68l-125 153h69l90 -105l90 105h69z" />
    <glyph glyph-name="breve" unicode="&#x2d8;" horiz-adv-x="500" 
d="M415 729c-8 -91 -63 -139 -165 -139s-157 48 -165 139h56c7 -53 48 -83 109 -83s102 30 109 83h56z" />
    <glyph glyph-name="dotaccent" unicode="&#x2d9;" horiz-adv-x="500" 
d="M212 610v77h75v-77h-75z" />
    <glyph glyph-name="ring" unicode="&#x2da;" horiz-adv-x="500" 
d="M368 687c0 -65 -53 -119 -118 -119s-118 54 -118 119s53 118 118 118s118 -52 118 -118zM319 687c0 38 -31 68 -69 68s-69 -30 -69 -68s31 -69 69 -69s69 31 69 69z" />
    <glyph glyph-name="ogonek" unicode="&#x2db;" horiz-adv-x="500" 
d="M369 -67l-59 -149h-79l71 149h67z" />
    <glyph glyph-name="tilde" unicode="&#x2dc;" horiz-adv-x="530" 
d="M422 658c-45 -46 -72 -51 -95 -51c-28 0 -47 10 -71 24c-19 11 -36 20 -56 20c-17 0 -29 -2 -59 -32l-37 36c46 46 71 51 95 51c29 0 46 -8 71 -24c21 -12 36 -20 56 -20c16 0 29 2 59 32z" />
    <glyph glyph-name="hungarumlaut" unicode="&#x2dd;" horiz-adv-x="500" 
d="M304 747l-108 -153h-66l89 153h85zM467 747l-109 -153h-65l89 153h85z" />
    <glyph glyph-name="uni037E" unicode="&#x37e;" horiz-adv-x="297" 
d="M205 -65l-88 -79v232h88v-153zM209 301h-94v94h94v-94z" />
    <glyph glyph-name="tonos" unicode="&#x384;" horiz-adv-x="255" 
d="M165 613l-76 -38v137h76v-99z" />
    <glyph glyph-name="dieresistonos" unicode="&#x385;" horiz-adv-x="488" 
d="M282 613l-76 -38v137h76v-99zM398 589h-72v90h72v-90zM161 589h-71v90h71v-90z" />
    <glyph glyph-name="Alphatonos" unicode="&#x386;" horiz-adv-x="611" 
d="M599 0h-81l-57 161h-311l-57 -161h-81l262 712h64zM439 227l-132 376l-134 -376h266zM78 613l-76 -38v137h76v-99z" />
    <glyph glyph-name="anoteleia" unicode="&#x387;" horiz-adv-x="270" 
d="M182 223h-94v94h94v-94z" />
    <glyph glyph-name="Epsilontonos" unicode="&#x388;" horiz-adv-x="600" 
d="M545 0h-442v712h442v-68h-366v-251h312v-68h-312v-257h366v-68zM18 613l-76 -38v137h76v-99z" />
    <glyph glyph-name="Etatonos" unicode="&#x389;" horiz-adv-x="696" 
d="M179 0h-76v712h76v-712zM517 712h76v-712h-76v712zM18 613l-76 -38v137h76v-99z" />
    <glyph glyph-name="Iotatonos" unicode="&#x38a;" horiz-adv-x="282" 
d="M179 0h-76v712h76v-712zM18 613l-76 -38v137h76v-99z" />
    <glyph glyph-name="Omicrontonos" unicode="&#x38c;" 
d="M574 356c0 -163 -3 -223 -72 -292c-44 -44 -103 -70 -177 -70s-134 26 -178 70c-67 67 -71 129 -71 292s4 225 71 292c44 44 104 70 178 70s133 -26 177 -70c69 -69 72 -129 72 -292zM498 356c0 146 -5 198 -50 244c-33 33 -75 50 -123 50s-91 -17 -123 -50
c-45 -46 -50 -98 -50 -244s5 -198 50 -244c32 -33 75 -50 123 -50s90 17 123 50c45 46 50 98 50 244zM38 613l-76 -38v137h76v-99z" />
    <glyph glyph-name="Upsilontonos" unicode="&#x38e;" horiz-adv-x="514" 
d="M506 712l-210 -418v-294h-76v294l-212 418h82l168 -341l166 341h82zM-32 613l-76 -38v137h76v-99z" />
    <glyph glyph-name="Omegatonos" unicode="&#x38f;" 
d="M574 356c0 -103 -2 -172 -28 -222c-12 -25 -28 -45 -55 -67h83v-67h-195v63c40 19 69 40 92 77s27 103 27 214c0 147 -5 200 -50 245c-34 34 -75 51 -123 51s-89 -17 -123 -51c-45 -45 -50 -98 -50 -245c0 -111 4 -177 27 -214s51 -58 92 -77v-63h-195v67h83
c-27 22 -43 42 -56 67c-25 50 -27 119 -27 222c0 163 4 225 71 292c44 44 104 70 178 70s133 -26 177 -70c67 -67 72 -129 72 -292zM38 613l-76 -38v137h76v-99z" />
    <glyph glyph-name="iotadieresistonos" unicode="&#x390;" horiz-adv-x="297" 
d="M265 0h-52c-86 0 -125 55 -125 131v361h72v-358c0 -48 16 -72 66 -72h39v-62zM164 613l-76 -38v137h76v-99zM280 589h-72v90h72v-90zM43 589h-71v90h71v-90z" />
    <glyph glyph-name="Alpha" unicode="&#x391;" horiz-adv-x="611" 
d="M599 0h-81l-57 161h-311l-57 -161h-81l262 712h64zM439 227l-132 376l-134 -376h266z" />
    <glyph glyph-name="Beta" unicode="&#x392;" horiz-adv-x="668" 
d="M592 197c0 -129 -86 -197 -212 -197h-277v712h268c124 0 210 -71 210 -190c0 -75 -45 -134 -105 -156c68 -25 116 -84 116 -169zM516 199c0 80 -55 130 -143 130h-194v-261h194c88 0 143 51 143 131zM505 521c0 85 -61 123 -140 123h-186v-247h186c79 0 140 39 140 124z
" />
    <glyph glyph-name="Gamma" unicode="&#x393;" horiz-adv-x="549" 
d="M529 644h-350v-644h-76v712h426v-68z" />
    <glyph glyph-name="uni0394" unicode="&#x394;" horiz-adv-x="603" 
d="M594 0h-586l262 712h63zM495 66l-193 537l-194 -537h387z" />
    <glyph glyph-name="Epsilon" unicode="&#x395;" horiz-adv-x="600" 
d="M545 0h-442v712h442v-68h-366v-251h312v-68h-312v-257h366v-68z" />
    <glyph glyph-name="Zeta" unicode="&#x396;" horiz-adv-x="556" 
d="M499 0h-442v72l356 572h-342v68h428v-64l-359 -580h359v-68z" />
    <glyph glyph-name="Eta" unicode="&#x397;" horiz-adv-x="696" 
d="M179 0h-76v712h76v-712zM517 712h76v-712h-76v712z" />
    <glyph glyph-name="Theta" unicode="&#x398;" 
d="M574 356c0 -163 -3 -223 -72 -292c-44 -44 -103 -70 -177 -70s-134 26 -178 70c-67 67 -71 129 -71 292s4 225 71 292c44 44 104 70 178 70s133 -26 177 -70c69 -69 72 -129 72 -292zM448 112c41 42 49 90 50 212h-346c1 -122 8 -170 50 -212c32 -33 75 -50 123 -50
s90 17 123 50zM202 600c-41 -42 -49 -90 -50 -209h346c-1 119 -9 167 -50 209c-33 33 -75 50 -123 50s-91 -17 -123 -50z" />
    <glyph glyph-name="Iota" unicode="&#x399;" horiz-adv-x="282" 
d="M179 0h-76v712h76v-712z" />
    <glyph glyph-name="Kappa" unicode="&#x39a;" 
d="M636 0h-90l-217 379l-150 -180v-199h-76v712h76v-409l332 409h93l-224 -275z" />
    <glyph glyph-name="Lambda" unicode="&#x39b;" horiz-adv-x="598" 
d="M568 0h-80l-188 604l-190 -604h-80l234 712h70z" />
    <glyph glyph-name="Mu" unicode="&#x39c;" horiz-adv-x="816" 
d="M713 0h-76v541l-195 -429h-65l-198 429v-541h-76v712h76l232 -505l226 505h76v-712z" />
    <glyph glyph-name="Nu" unicode="&#x39d;" horiz-adv-x="732" 
d="M629 0h-72l-378 571v-571h-76v712h72l378 -569v569h76v-712z" />
    <glyph glyph-name="Xi" unicode="&#x39e;" horiz-adv-x="573" 
d="M518 0h-463v68h193v257h-139v68h139v251h-193v68h463v-68h-194v-251h140v-68h-140v-257h194v-68z" />
    <glyph glyph-name="Omicron" unicode="&#x39f;" 
d="M574 356c0 -163 -3 -223 -72 -292c-44 -44 -103 -70 -177 -70s-134 26 -178 70c-67 67 -71 129 -71 292s4 225 71 292c44 44 104 70 178 70s133 -26 177 -70c69 -69 72 -129 72 -292zM498 356c0 146 -5 198 -50 244c-33 33 -75 50 -123 50s-91 -17 -123 -50
c-45 -46 -50 -98 -50 -244s5 -198 50 -244c32 -33 75 -50 123 -50s90 17 123 50c45 46 50 98 50 244z" />
    <glyph glyph-name="Pi" unicode="&#x3a0;" horiz-adv-x="681" 
d="M578 0h-76v644h-323v-644h-76v712h475v-712z" />
    <glyph glyph-name="Rho" unicode="&#x3a1;" horiz-adv-x="630" 
d="M588 503c0 -128 -90 -210 -220 -210h-189v-293h-76v712h265c130 0 220 -81 220 -209zM512 503c0 94 -62 141 -151 141h-182v-283h182c89 0 151 48 151 142z" />
    <glyph glyph-name="Sigma" unicode="&#x3a3;" horiz-adv-x="557" 
d="M500 644h-339l168 -261l-189 -315h359v-68h-442v71l187 310l-172 269v62h428v-68z" />
    <glyph glyph-name="Tau" unicode="&#x3a4;" horiz-adv-x="548" 
d="M518 644h-206v-644h-76v644h-206v68h488v-68z" />
    <glyph glyph-name="Upsilon" unicode="&#x3a5;" horiz-adv-x="514" 
d="M506 712l-210 -418v-294h-76v294l-212 418h82l168 -341l166 341h82z" />
    <glyph glyph-name="Phi" unicode="&#x3a6;" horiz-adv-x="732" 
d="M670 361c0 -81 -4 -161 -65 -222c-58 -58 -121 -77 -201 -77v-62h-76v62c-80 0 -143 19 -201 77c-61 61 -65 141 -65 222s4 161 65 222c58 58 121 77 201 77v52h76v-52c80 0 143 -19 201 -77c61 -61 65 -141 65 -222zM594 361c0 62 -1 130 -47 178c-40 41 -87 53 -143 53
v-462c56 0 103 11 143 53c46 48 47 116 47 178zM328 130v462c-56 0 -102 -12 -142 -53c-46 -48 -48 -116 -48 -178s2 -130 48 -178c40 -42 86 -53 142 -53z" />
    <glyph glyph-name="Chi" unicode="&#x3a7;" horiz-adv-x="551" 
d="M536 0h-88l-173 299l-174 -299h-86l218 365l-204 347h88l158 -281l158 281h88l-205 -347z" />
    <glyph glyph-name="Psi" unicode="&#x3a8;" horiz-adv-x="675" 
d="M623 370c0 -72 -18 -117 -63 -162c-48 -48 -111 -74 -182 -74h-2v-134h-76v134h-3c-71 0 -134 26 -182 74c-45 45 -63 90 -63 162v342h76v-342c0 -59 17 -88 46 -118c31 -32 76 -50 123 -50h3v510h76v-510h2c47 0 92 18 123 50c29 30 46 59 46 118v342h76v-342z" />
    <glyph glyph-name="uni03A9" unicode="&#x3a9;" 
d="M574 356c0 -103 -2 -172 -28 -222c-12 -25 -28 -45 -55 -67h83v-67h-195v63c40 19 69 40 92 77s27 103 27 214c0 147 -5 200 -50 245c-34 34 -75 51 -123 51s-89 -17 -123 -51c-45 -45 -50 -98 -50 -245c0 -111 4 -177 27 -214s51 -58 92 -77v-63h-195v67h83
c-27 22 -43 42 -56 67c-25 50 -27 119 -27 222c0 163 4 225 71 292c44 44 104 70 178 70s133 -26 177 -70c67 -67 72 -129 72 -292z" />
    <glyph glyph-name="Iotadieresis" unicode="&#x3aa;" horiz-adv-x="282" 
d="M179 0h-76v712h76v-712zM285 789h-72v89h72v-89zM73 789h-72v89h72v-89z" />
    <glyph glyph-name="Upsilondieresis" unicode="&#x3ab;" horiz-adv-x="514" 
d="M506 712l-210 -418v-294h-76v294l-212 418h82l168 -341l166 341h82zM399 789h-72v89h72v-89zM187 789h-72v89h72v-89z" />
    <glyph glyph-name="alphatonos" unicode="&#x3ac;" horiz-adv-x="545" 
d="M455 0h-71v59c-41 -52 -84 -65 -140 -65c-51 0 -94 17 -120 43c-49 50 -60 130 -60 209s11 160 60 209c26 26 69 43 120 43c56 0 99 -13 140 -64v58h71v-492zM383 246c0 96 -16 188 -123 188c-108 0 -124 -92 -124 -188s16 -188 124 -188c107 0 123 92 123 188zM304 613
l-76 -38v137h76v-99z" />
    <glyph glyph-name="epsilontonos" unicode="&#x3ad;" horiz-adv-x="493" 
d="M450 73c-66 -62 -131 -79 -210 -79c-93 0 -178 47 -178 142c0 61 31 96 80 116c-43 17 -71 53 -71 107c0 89 86 139 175 139c85 0 136 -18 192 -71l-45 -48c-44 40 -87 58 -144 58c-51 0 -104 -32 -104 -80c0 -47 31 -78 91 -78h87v-57h-85c-77 0 -101 -40 -101 -83
c0 -49 47 -83 106 -83c46 0 104 12 157 61zM294 613l-76 -38v137h76v-99z" />
    <glyph glyph-name="etatonos" unicode="&#x3ae;" horiz-adv-x="562" 
d="M477 0h-72v303c0 87 -47 131 -121 131s-122 -45 -122 -131v-303h-72v492h72v-54c35 40 83 60 138 60c53 0 96 -16 126 -46c35 -34 51 -80 51 -137v-315zM324 613l-76 -38v137h76v-99z" />
    <glyph glyph-name="iotatonos" unicode="&#x3af;" horiz-adv-x="297" 
d="M265 0h-52c-86 0 -125 55 -125 131v361h72v-358c0 -48 16 -72 66 -72h39v-62zM164 613l-76 -38v137h76v-99z" />
    <glyph glyph-name="upsilondieresistonos" unicode="&#x3b0;" horiz-adv-x="521" 
d="M453 245c0 -69 -3 -141 -57 -195c-37 -37 -79 -56 -136 -56s-98 19 -135 56c-54 54 -57 126 -57 195v247h71v-257c0 -49 0 -104 35 -139c25 -25 50 -38 86 -38s61 13 86 38c35 35 35 90 35 139v257h72v-247zM298 613l-76 -38v137h76v-99zM414 589h-72v90h72v-90zM177 589
h-71v90h71v-90z" />
    <glyph glyph-name="alpha" unicode="&#x3b1;" horiz-adv-x="545" 
d="M455 0h-71v59c-41 -52 -84 -65 -140 -65c-51 0 -94 17 -120 43c-49 50 -60 130 -60 209s11 160 60 209c26 26 69 43 120 43c56 0 99 -13 140 -64v58h71v-492zM383 246c0 96 -16 188 -123 188c-108 0 -124 -92 -124 -188s16 -188 124 -188c107 0 123 92 123 188z" />
    <glyph glyph-name="beta" unicode="&#x3b2;" horiz-adv-x="553" 
d="M505 202c0 -111 -81 -208 -187 -208c-64 0 -113 11 -157 65v-59h-71v533c0 103 78 179 191 179c110 0 187 -57 187 -170c0 -63 -24 -136 -97 -156c81 -13 134 -67 134 -184zM435 205c0 126 -78 144 -163 144h-59v57h61c115 0 125 78 125 126c0 88 -52 121 -116 121
c-84 0 -121 -59 -121 -139v-309c0 -74 38 -149 134 -149c99 0 139 78 139 149z" />
    <glyph glyph-name="gamma" unicode="&#x3b3;" horiz-adv-x="447" 
d="M435 492l-176 -487v-225h-71v225l-176 487h77l135 -398l134 398h77z" />
    <glyph glyph-name="delta" unicode="&#x3b4;" horiz-adv-x="531" 
d="M467 253c0 -77 -12 -154 -62 -205c-34 -35 -80 -54 -141 -54c-58 0 -104 19 -138 54c-49 50 -62 123 -62 198c0 70 13 141 60 189c33 34 76 53 130 53c19 0 40 -3 57 -11l-193 175v60h306v-60h-217l158 -146c83 -77 102 -162 102 -253zM394 246c0 53 -5 111 -37 147
c-22 25 -52 39 -89 39c-38 0 -69 -13 -92 -37c-35 -36 -40 -95 -40 -149c0 -52 4 -112 38 -149c23 -25 52 -39 91 -39s69 13 92 38c34 37 37 96 37 150z" />
    <glyph glyph-name="epsilon" unicode="&#x3b5;" horiz-adv-x="493" 
d="M450 73c-66 -62 -131 -79 -210 -79c-93 0 -178 47 -178 142c0 61 31 96 80 116c-43 17 -71 53 -71 107c0 89 86 139 175 139c85 0 136 -18 192 -71l-45 -48c-44 40 -87 58 -144 58c-51 0 -104 -32 -104 -80c0 -47 31 -78 91 -78h87v-57h-85c-77 0 -101 -40 -101 -83
c0 -49 47 -83 106 -83c46 0 104 12 157 61z" />
    <glyph glyph-name="zeta" unicode="&#x3b6;" horiz-adv-x="470" 
d="M434 -45c0 -59 -33 -115 -137 -115v56c41 0 72 14 72 54c0 37 -25 50 -75 50h-48c-127 0 -194 31 -194 131c0 53 18 93 67 134c9 8 168 147 195 163h-232v64h343v-64l-152 -126c-95 -79 -145 -108 -145 -170c0 -54 47 -66 130 -66h39c76 0 137 -30 137 -111z" />
    <glyph glyph-name="eta" unicode="&#x3b7;" horiz-adv-x="562" 
d="M477 0h-72v303c0 87 -47 131 -121 131s-122 -45 -122 -131v-303h-72v492h72v-54c35 40 83 60 138 60c53 0 96 -16 126 -46c35 -34 51 -80 51 -137v-315z" />
    <glyph glyph-name="theta" unicode="&#x3b8;" horiz-adv-x="552" 
d="M481 356c0 -113 0 -237 -66 -304c-37 -38 -79 -58 -139 -58s-103 20 -139 58c-66 67 -66 191 -66 304s0 237 66 304c36 38 79 58 139 58s102 -20 139 -58c66 -67 66 -191 66 -304zM408 342h-264c0 -109 2 -202 44 -245c24 -25 50 -39 88 -39c37 0 64 14 88 39
c41 43 44 136 44 245zM408 404c0 76 -3 169 -44 211c-24 25 -51 39 -88 39c-38 0 -64 -14 -88 -39c-41 -42 -44 -135 -44 -211h264z" />
    <glyph glyph-name="iota" unicode="&#x3b9;" horiz-adv-x="297" 
d="M265 0h-52c-86 0 -125 55 -125 131v361h72v-358c0 -48 16 -72 66 -72h39v-62z" />
    <glyph glyph-name="kappa" unicode="&#x3ba;" horiz-adv-x="536" 
d="M503 0h-89l-156 252l-96 -109v-143h-72v492h72v-256l222 256h89l-166 -188z" />
    <glyph glyph-name="lambda" unicode="&#x3bb;" horiz-adv-x="479" 
d="M487 0h-28c-34 0 -61 8 -86 31c-14 13 -27 33 -36 61l-97 302l-146 -394h-78l191 483l-37 117c-13 41 -29 52 -72 52h-18v62h23c64 0 105 -20 127 -87l167 -507c13 -40 35 -58 67 -58h23v-62z" />
    <glyph glyph-name="uni03BC" unicode="&#x3bc;" horiz-adv-x="561" 
d="M471 0h-72v55c-35 -40 -83 -61 -138 -61c-44 0 -80 13 -106 37v-251h-72v712h72v-303c0 -87 47 -131 121 -131s123 45 123 131v303h72v-492z" />
    <glyph glyph-name="nu" unicode="&#x3bd;" horiz-adv-x="447" 
d="M435 492l-180 -492h-63l-180 492h77l135 -395l134 395h77z" />
    <glyph glyph-name="xi" unicode="&#x3be;" horiz-adv-x="492" 
d="M472 615l-46 -45c-40 42 -83 68 -140 68c-76 0 -124 -48 -124 -125c0 -76 45 -113 122 -113h120v-63h-118c-65 0 -151 -43 -151 -143c0 -95 69 -130 150 -130h53c65 0 120 -34 120 -109c0 -59 -33 -115 -137 -115v56c41 0 71 14 71 54c0 37 -24 50 -74 50h-55
c-117 0 -203 77 -203 191c0 92 52 158 124 180c-57 17 -96 74 -96 142c0 110 82 187 198 187c66 0 130 -23 186 -85z" />
    <glyph glyph-name="omicron" unicode="&#x3bf;" horiz-adv-x="530" 
d="M466 246c0 -76 -10 -145 -60 -196c-34 -35 -81 -56 -141 -56s-107 21 -141 56c-50 51 -60 120 -60 196s10 146 60 196c34 35 81 56 141 56s107 -21 141 -56c50 -50 60 -120 60 -196zM394 246c0 56 -3 116 -39 152c-24 24 -55 36 -90 36s-65 -12 -89 -36
c-36 -36 -40 -96 -40 -152c0 -55 3 -115 40 -152c24 -24 54 -36 89 -36s66 12 90 36c36 37 39 97 39 152z" />
    <glyph glyph-name="pi" unicode="&#x3c0;" horiz-adv-x="564" 
d="M479 0h-69v427h-250v-427h-70v492h389v-492z" />
    <glyph glyph-name="rho" unicode="&#x3c1;" horiz-adv-x="517" 
d="M453 245c0 -77 -15 -159 -66 -208c-27 -26 -69 -43 -121 -43c-48 0 -87 14 -130 62v-276h-72v495c0 77 17 129 58 170c29 29 70 53 135 53c72 0 117 -28 146 -63c37 -45 50 -102 50 -190zM381 246c0 65 -5 113 -30 147c-18 24 -50 40 -93 40c-41 0 -69 -15 -87 -38
c-28 -34 -35 -81 -35 -146c0 -52 3 -104 25 -139c20 -31 47 -51 97 -51c106 0 123 96 123 187z" />
    <glyph glyph-name="sigma1" unicode="&#x3c2;" horiz-adv-x="490" 
d="M443 425l-49 -46c-37 41 -67 55 -113 55c-48 0 -88 -19 -114 -56c-23 -32 -32 -69 -32 -132c0 -56 9 -93 31 -125c29 -42 69 -55 123 -56c78 -1 148 -26 148 -110c0 -59 -34 -115 -138 -115v56c41 0 72 14 72 54c0 47 -42 50 -83 50c-137 1 -225 82 -225 246
c0 168 93 252 218 252c68 0 112 -18 162 -73z" />
    <glyph glyph-name="sigma" unicode="&#x3c3;" horiz-adv-x="549" 
d="M484 430h-90c49 -38 73 -110 73 -184c0 -76 -10 -145 -60 -196c-34 -35 -80 -56 -141 -56c-60 0 -107 21 -141 56c-50 51 -60 120 -60 196s8 141 58 192c34 34 81 54 141 54h220v-62zM395 246c0 56 -5 112 -41 149c-24 24 -54 35 -90 35c-35 0 -65 -12 -89 -36
c-36 -37 -38 -92 -38 -148c0 -55 3 -115 39 -152c24 -24 54 -36 90 -36c35 0 66 12 89 36c37 37 40 97 40 152z" />
    <glyph glyph-name="tau" unicode="&#x3c4;" horiz-adv-x="378" 
d="M346 428h-121v-428h-72v428h-121v64h314v-64z" />
    <glyph glyph-name="upsilon" unicode="&#x3c5;" horiz-adv-x="521" 
d="M453 245c0 -69 -3 -141 -57 -195c-37 -37 -79 -56 -136 -56s-98 19 -135 56c-54 54 -57 126 -57 195v247h71v-257c0 -49 0 -104 35 -139c25 -25 50 -38 86 -38s61 13 86 38c35 35 35 90 35 139v257h72v-247z" />
    <glyph glyph-name="phi" unicode="&#x3c6;" horiz-adv-x="659" 
d="M595 250c0 -158 -52 -256 -230 -256v-214h-72v214c-177 2 -229 115 -229 254c0 115 41 196 130 243l22 -60c-66 -42 -80 -114 -80 -186c0 -96 21 -182 157 -187v434h83c158 0 219 -81 219 -242zM522 253c0 104 -18 175 -157 175v-370c145 4 157 89 157 195z" />
    <glyph glyph-name="chi" unicode="&#x3c7;" horiz-adv-x="478" 
d="M445 0h-87l-118 191l-120 -191h-87l167 251l-160 241h87l113 -182l111 182h87l-160 -241z" />
    <glyph glyph-name="psi" unicode="&#x3c8;" horiz-adv-x="641" 
d="M573 246c0 -160 -56 -247 -217 -251v-215h-73v215c-161 4 -215 90 -215 251v246h72v-246c0 -118 23 -181 143 -185v431h73v-431c121 4 144 67 144 185v246h73v-246z" />
    <glyph glyph-name="omega" unicode="&#x3c9;" horiz-adv-x="723" 
d="M659 242c0 -62 -8 -128 -35 -175c-26 -45 -70 -73 -136 -73c-64 0 -107 42 -127 93c-20 -51 -62 -93 -126 -93c-66 0 -110 28 -136 73c-27 47 -35 113 -35 175c0 66 17 148 50 187c23 27 63 65 128 69v-66c-33 -3 -65 -30 -79 -53c-19 -32 -28 -57 -28 -137
c0 -37 1 -98 24 -139c15 -26 41 -45 76 -45c48 0 71 37 82 79c8 34 8 72 8 98v126h73v-143c0 -24 1 -54 7 -81c10 -43 34 -79 83 -79c35 0 61 19 76 45c23 41 23 102 23 139c0 80 -8 105 -27 137c-14 23 -47 50 -80 53v66c65 -4 105 -42 128 -69c33 -39 51 -121 51 -187z
" />
    <glyph glyph-name="iotadieresis" unicode="&#x3ca;" horiz-adv-x="297" 
d="M265 0h-52c-86 0 -125 55 -125 131v361h72v-358c0 -48 16 -72 66 -72h39v-62zM269 602h-72v89h72v-89zM57 602h-72v89h72v-89z" />
    <glyph glyph-name="upsilondieresis" unicode="&#x3cb;" horiz-adv-x="521" 
d="M453 245c0 -69 -3 -141 -57 -195c-37 -37 -79 -56 -136 -56s-98 19 -135 56c-54 54 -57 126 -57 195v247h71v-257c0 -49 0 -104 35 -139c25 -25 50 -38 86 -38s61 13 86 38c35 35 35 90 35 139v257h72v-247zM407 602h-72v89h72v-89zM195 602h-72v89h72v-89z" />
    <glyph glyph-name="omicrontonos" unicode="&#x3cc;" horiz-adv-x="530" 
d="M466 246c0 -76 -10 -145 -60 -196c-34 -35 -81 -56 -141 -56s-107 21 -141 56c-50 51 -60 120 -60 196s10 146 60 196c34 35 81 56 141 56s107 -21 141 -56c50 -50 60 -120 60 -196zM394 246c0 56 -3 116 -39 152c-24 24 -55 36 -90 36s-65 -12 -89 -36
c-36 -36 -40 -96 -40 -152c0 -55 3 -115 40 -152c24 -24 54 -36 89 -36s66 12 90 36c36 37 39 97 39 152zM304 613l-76 -38v137h76v-99z" />
    <glyph glyph-name="upsilontonos" unicode="&#x3cd;" horiz-adv-x="521" 
d="M453 245c0 -69 -3 -141 -57 -195c-37 -37 -79 -56 -136 -56s-98 19 -135 56c-54 54 -57 126 -57 195v247h71v-257c0 -49 0 -104 35 -139c25 -25 50 -38 86 -38s61 13 86 38c35 35 35 90 35 139v257h72v-247zM294 613l-76 -38v137h76v-99z" />
    <glyph glyph-name="omegatonos" unicode="&#x3ce;" horiz-adv-x="723" 
d="M659 242c0 -62 -8 -128 -35 -175c-26 -45 -70 -73 -136 -73c-64 0 -107 42 -127 93c-20 -51 -62 -93 -126 -93c-66 0 -110 28 -136 73c-27 47 -35 113 -35 175c0 66 17 148 50 187c23 27 63 65 128 69v-66c-33 -3 -65 -30 -79 -53c-19 -32 -28 -57 -28 -137
c0 -37 1 -98 24 -139c15 -26 41 -45 76 -45c48 0 71 37 82 79c8 34 8 72 8 98v126h73v-143c0 -24 1 -54 7 -81c10 -43 34 -79 83 -79c35 0 61 19 76 45c23 41 23 102 23 139c0 80 -8 105 -27 137c-14 23 -47 50 -80 53v66c65 -4 105 -42 128 -69c33 -39 51 -121 51 -187z
M394 613l-76 -38v137h76v-99z" />
    <glyph glyph-name="uni03D0" unicode="&#x3d0;" horiz-adv-x="553" 
d="M505 202c0 -111 -81 -208 -187 -208c-64 0 -112 10 -156 64v-278h-72v753c0 103 78 179 191 179c110 0 187 -57 187 -170c0 -63 -24 -136 -97 -156c81 -13 134 -67 134 -184zM435 205c0 126 -78 144 -163 144h-59v57h61c115 0 125 78 125 126c0 88 -52 121 -116 121
c-84 0 -121 -59 -121 -139v-309c0 -74 38 -149 134 -149c99 0 139 78 139 149z" />
    <glyph glyph-name="uni0400" unicode="&#x400;" horiz-adv-x="600" 
d="M364 780h-69l-105 154h83zM545 0h-442v712h442v-68h-366v-251h312v-68h-312v-257h366v-68z" />
    <glyph glyph-name="afii10023" unicode="&#x401;" horiz-adv-x="600" 
d="M545 0h-442v712h442v-68h-366v-251h312v-68h-312v-257h366v-68zM455 789h-72v89h72v-89zM243 789h-72v89h72v-89z" />
    <glyph glyph-name="afii10051" unicode="&#x402;" horiz-adv-x="744" 
d="M656 218c0 -138 -87 -218 -219 -218h-41v67h33c95 0 151 48 151 150s-56 151 -151 151h-152v-368h-76v644h-175v68h487v-68h-236v-209h160c132 0 219 -79 219 -217z" />
    <glyph glyph-name="afii10052" unicode="&#x403;" horiz-adv-x="569" 
d="M538 644h-352v-644h-76v712h428v-68zM439 934l-105 -154h-69l91 154h83z" />
    <glyph glyph-name="afii10053" unicode="&#x404;" horiz-adv-x="637" 
d="M572 206c-25 -133 -120 -212 -247 -212c-74 0 -134 26 -178 70c-67 67 -71 129 -71 292s4 225 71 292c44 44 104 70 178 70c129 0 222 -79 247 -212h-77c-19 89 -81 145 -170 145c-49 0 -91 -17 -124 -51c-41 -42 -49 -90 -49 -208h268v-67h-268c0 -122 7 -171 49 -213
c33 -34 75 -51 124 -51c89 0 152 56 172 145h75z" />
    <glyph glyph-name="afii10054" unicode="&#x405;" horiz-adv-x="588" 
d="M532 196c0 -125 -97 -202 -246 -202c-106 0 -177 27 -243 94l51 51c59 -59 114 -77 194 -77c105 0 169 48 169 132c0 38 -11 68 -35 89c-22 20 -42 27 -93 35l-83 12c-56 9 -98 26 -130 54c-36 32 -55 76 -55 134c0 121 87 200 228 200c91 0 151 -24 212 -78l-49 -49
c-43 41 -92 62 -166 62c-96 0 -151 -53 -151 -133c0 -35 10 -64 32 -83s56 -31 93 -37l83 -13c66 -10 97 -22 129 -51c38 -33 60 -81 60 -140z" />
    <glyph glyph-name="afii10055" unicode="&#x406;" horiz-adv-x="282" 
d="M179 0h-76v712h76v-712z" />
    <glyph glyph-name="afii10056" unicode="&#x407;" horiz-adv-x="282" 
d="M179 0h-76v712h76v-712zM283 789h-72v89h72v-89zM71 789h-72v89h72v-89z" />
    <glyph glyph-name="afii10057" unicode="&#x408;" horiz-adv-x="501" 
d="M408 216c0 -137 -92 -222 -222 -222c-68 0 -119 20 -163 64l51 51c26 -26 53 -47 112 -47c93 0 146 59 146 164v486h76v-496z" />
    <glyph glyph-name="afii10058" unicode="&#x409;" horiz-adv-x="1025" 
d="M909 209c0 90 -56 142 -151 142h-184v-283h184c95 0 151 52 151 141zM182 712h392v-293h192c132 0 219 -84 219 -210c0 -125 -87 -209 -219 -209h-268v644h-242v-244c0 -300 -72 -400 -208 -400h-36v68h19c88 0 151 59 151 355v289z" />
    <glyph glyph-name="afii10059" unicode="&#x40a;" horiz-adv-x="1043" 
d="M1003 209c0 -125 -87 -209 -219 -209h-268v351h-337v-351h-76v712h76v-293h337v293h76v-293h192c132 0 219 -84 219 -210zM927 209c0 90 -56 142 -151 142h-184v-283h184c95 0 151 52 151 141z" />
    <glyph glyph-name="afii10060" unicode="&#x40b;" horiz-adv-x="744" 
d="M656 0h-76v227c0 89 -56 141 -151 141h-152v-368h-76v644h-175v68h487v-68h-236v-209h160c132 0 219 -83 219 -208v-227z" />
    <glyph glyph-name="afii10061" unicode="&#x40c;" horiz-adv-x="611" 
d="M183 0h-76v712h76v-712zM612 0h-101l-327 372l305 340h96l-312 -338zM451 934l-105 -154h-69l91 154h83z" />
    <glyph glyph-name="uni040D" unicode="&#x40d;" horiz-adv-x="716" 
d="M613 0h-76v581l-362 -581h-72v712h76v-580l362 580h72v-712zM396 780h-69l-105 154h83z" />
    <glyph glyph-name="afii10062" unicode="&#x40e;" horiz-adv-x="546" 
d="M429 883c-6 -89 -63 -126 -146 -126s-140 37 -146 126h64c4 -49 33 -74 82 -74s78 25 82 74h64zM537 712l-258 -601c-28 -65 -69 -111 -140 -111h-62v68h45c49 0 73 22 94 71l29 67l-235 506h81l192 -421l173 421h81z" />
    <glyph glyph-name="afii10145" unicode="&#x40f;" horiz-adv-x="696" 
d="M592 0h-206v-172h-75v172h-208v712h76v-644h337v644h76v-712z" />
    <glyph glyph-name="afii10017" unicode="&#x410;" horiz-adv-x="611" 
d="M599 0h-81l-57 161h-311l-57 -161h-81l262 712h64zM439 227l-132 376l-134 -376h266z" />
    <glyph glyph-name="afii10018" unicode="&#x411;" horiz-adv-x="656" 
d="M591 209c0 -125 -86 -209 -219 -209h-269v712h444v-68h-368v-225h193c133 0 219 -84 219 -210zM515 209c0 90 -55 142 -150 142h-186v-283h186c95 0 150 52 150 141z" />
    <glyph glyph-name="afii10019" unicode="&#x412;" horiz-adv-x="668" 
d="M592 195c0 -121 -80 -195 -212 -195h-277v712h268c126 0 210 -75 210 -187c0 -51 -18 -94 -52 -126c-15 -15 -26 -21 -53 -33c33 -14 46 -22 63 -39c35 -34 53 -78 53 -132zM505 521c0 77 -52 123 -140 123h-186v-247h186c88 0 140 46 140 124zM516 199
c0 80 -55 130 -143 130h-194v-261h194c88 0 143 51 143 131z" />
    <glyph glyph-name="afii10020" unicode="&#x413;" horiz-adv-x="569" 
d="M538 644h-352v-644h-76v712h428v-68z" />
    <glyph glyph-name="afii10021" unicode="&#x414;" horiz-adv-x="694" 
d="M26 68h63c65 102 90 230 90 404v240h389v-644h85v-240h-75v172h-477v-172h-75v240zM174 68h318v576h-241v-219c0 -132 -20 -257 -77 -357z" />
    <glyph glyph-name="afii10022" unicode="&#x415;" horiz-adv-x="600" 
d="M545 0h-442v712h442v-68h-366v-251h312v-68h-312v-257h366v-68z" />
    <glyph glyph-name="afii10024" unicode="&#x416;" horiz-adv-x="902" 
d="M903 0h-100l-313 372l290 340h96l-299 -338zM99 0h-100l326 374l-300 338h96l291 -340zM489 0h-76v712h76v-712z" />
    <glyph glyph-name="afii10025" unicode="&#x417;" horiz-adv-x="616" 
d="M303 -6c-123 0 -219 78 -242 212h75c19 -88 82 -145 171 -145c90 0 157 52 157 137c0 89 -52 133 -145 133h-90v66h93c83 0 131 46 131 129c0 81 -57 126 -145 126c-89 0 -150 -58 -170 -146h-76c23 134 118 212 247 212c127 0 220 -73 220 -189
c0 -77 -35 -131 -103 -162c74 -27 114 -84 114 -171c0 -124 -102 -202 -237 -202z" />
    <glyph glyph-name="afii10026" unicode="&#x418;" horiz-adv-x="716" 
d="M613 0h-76v581l-362 -581h-72v712h76v-580l362 580h72v-712z" />
    <glyph glyph-name="afii10027" unicode="&#x419;" horiz-adv-x="716" 
d="M504 883c-6 -89 -63 -126 -146 -126s-140 37 -146 126h64c4 -49 33 -74 82 -74s78 25 82 74h64zM613 0h-76v581l-362 -581h-72v712h76v-580l362 580h72v-712z" />
    <glyph glyph-name="afii10028" unicode="&#x41a;" horiz-adv-x="611" 
d="M183 0h-76v712h76v-712zM612 0h-101l-327 372l305 340h96l-312 -338z" />
    <glyph glyph-name="afii10029" unicode="&#x41b;" horiz-adv-x="677" 
d="M574 0h-76v644h-242v-244c0 -300 -72 -400 -208 -400h-36v68h19c88 0 151 59 151 355v289h392v-712z" />
    <glyph glyph-name="afii10030" unicode="&#x41c;" horiz-adv-x="816" 
d="M713 0h-76v541l-195 -429h-65l-198 429v-541h-76v712h76l232 -505l226 505h76v-712z" />
    <glyph glyph-name="afii10031" unicode="&#x41d;" horiz-adv-x="696" 
d="M179 0h-76v712h76v-712zM517 712h76v-712h-76v712z" />
    <glyph glyph-name="afii10032" unicode="&#x41e;" 
d="M574 356c0 -163 -5 -225 -72 -292c-44 -44 -103 -70 -177 -70s-134 26 -178 70c-67 67 -71 129 -71 292s4 225 71 292c44 44 104 70 178 70s133 -26 177 -70c67 -67 72 -129 72 -292zM498 356c0 146 -5 198 -50 244c-33 33 -75 50 -123 50s-90 -17 -123 -50
c-45 -46 -50 -98 -50 -244s5 -198 50 -244c33 -33 75 -50 123 -50s90 17 123 50c45 46 50 98 50 244z" />
    <glyph glyph-name="afii10033" unicode="&#x41f;" horiz-adv-x="696" 
d="M592 0h-76v644h-337v-644h-76v712h489v-712z" />
    <glyph glyph-name="afii10034" unicode="&#x420;" horiz-adv-x="630" 
d="M588 503c0 -127 -91 -210 -220 -210h-189v-293h-76v712h265c129 0 220 -82 220 -209zM512 503c0 94 -61 141 -150 141h-183v-283h183c89 0 150 48 150 142z" />
    <glyph glyph-name="afii10035" unicode="&#x421;" horiz-adv-x="637" 
d="M572 206c-25 -133 -119 -212 -247 -212c-74 0 -134 26 -178 70c-67 67 -71 129 -71 292s4 225 71 292c44 44 104 70 178 70c129 0 222 -79 247 -212h-78c-19 88 -80 144 -169 144c-48 0 -90 -17 -123 -50c-45 -46 -50 -98 -50 -244s5 -198 50 -244c33 -33 75 -50 123 -50
c89 0 152 56 171 144h76z" />
    <glyph glyph-name="afii10036" unicode="&#x422;" horiz-adv-x="548" 
d="M518 644h-206v-644h-76v644h-206v68h488v-68z" />
    <glyph glyph-name="afii10037" unicode="&#x423;" horiz-adv-x="546" 
d="M537 712l-258 -601c-28 -65 -69 -111 -140 -111h-62v68h45c49 0 73 22 94 71l29 67l-235 506h81l192 -421l173 421h81z" />
    <glyph glyph-name="afii10038" unicode="&#x424;" horiz-adv-x="779" 
d="M428 606v-453c166 4 220 87 220 226s-49 223 -220 227zM352 153v453c-172 -4 -221 -88 -221 -227s54 -222 221 -226zM428 -4h-76v92c-210 7 -297 108 -297 294s91 282 297 289v67h76v-67c206 -7 296 -103 296 -289s-86 -287 -296 -294v-92z" />
    <glyph glyph-name="afii10039" unicode="&#x425;" horiz-adv-x="551" 
d="M536 0h-88l-173 299l-174 -299h-86l218 365l-204 347h88l158 -281l158 281h88l-205 -347z" />
    <glyph glyph-name="afii10040" unicode="&#x426;" horiz-adv-x="718" 
d="M677 -172h-75v172h-499v712h76v-644h337v644h76v-644h85v-240z" />
    <glyph glyph-name="afii10041" unicode="&#x427;" horiz-adv-x="645" 
d="M542 0h-76v291c-44 -9 -137 -27 -201 -27c-97 0 -189 44 -189 178v270h76v-256c0 -103 66 -124 132 -124c51 0 137 16 182 25v355h76v-712z" />
    <glyph glyph-name="afii10042" unicode="&#x428;" horiz-adv-x="997" 
d="M894 0h-791v712h76v-644h281v644h77v-644h281v644h76v-712z" />
    <glyph glyph-name="afii10043" unicode="&#x429;" horiz-adv-x="1019" 
d="M978 -172h-75v172h-800v712h76v-644h281v644h77v-644h281v644h76v-644h84v-240z" />
    <glyph glyph-name="afii10044" unicode="&#x42a;" horiz-adv-x="727" 
d="M687 209c0 -125 -87 -209 -219 -209h-268v644h-170v68h247v-293h191c132 0 219 -84 219 -210zM611 209c0 90 -56 142 -150 142h-184v-283h184c94 0 150 52 150 141z" />
    <glyph glyph-name="afii10045" unicode="&#x42b;" horiz-adv-x="864" 
d="M761 0h-76v712h76v-712zM590 209c0 -125 -88 -209 -220 -209h-267v712h76v-293h191c133 0 220 -84 220 -210zM513 209c0 90 -55 142 -150 142h-184v-283h184c95 0 150 52 150 141z" />
    <glyph glyph-name="afii10046" unicode="&#x42c;" horiz-adv-x="630" 
d="M590 209c0 -125 -88 -209 -220 -209h-267v712h76v-293h191c133 0 220 -84 220 -210zM513 209c0 90 -55 142 -150 142h-184v-283h184c95 0 150 52 150 141z" />
    <glyph glyph-name="afii10047" unicode="&#x42d;" horiz-adv-x="637" 
d="M65 206h76c19 -88 82 -144 171 -144c48 0 90 17 123 50c42 42 49 90 50 213h-269v67h269c-1 118 -9 166 -50 208c-33 33 -75 50 -123 50c-89 0 -150 -56 -169 -144h-78c25 133 118 212 247 212c74 0 134 -26 178 -70c67 -67 71 -129 71 -292s-4 -225 -71 -292
c-44 -44 -104 -70 -178 -70c-128 0 -222 79 -247 212z" />
    <glyph glyph-name="afii10048" unicode="&#x42e;" horiz-adv-x="903" 
d="M828 356c0 -163 -3 -223 -72 -292c-44 -44 -103 -70 -177 -70s-134 26 -178 70c-63 62 -70 121 -71 261h-151v-325h-76v712h76v-319h151c1 135 9 193 71 255c44 44 104 70 178 70s133 -26 177 -70c69 -69 72 -129 72 -292zM752 356c0 146 -5 198 -50 244
c-33 33 -75 50 -123 50s-91 -17 -123 -50c-45 -46 -50 -98 -50 -244s5 -198 50 -244c32 -33 75 -50 123 -50s90 17 123 50c45 46 50 98 50 244z" />
    <glyph glyph-name="afii10049" unicode="&#x42f;" horiz-adv-x="655" 
d="M300 293l-155 -293h-89l164 304c-94 23 -153 97 -153 199c0 127 88 209 220 209h265v-712h-76v293h-176zM476 361v284h-182c-95 0 -151 -53 -151 -142s56 -142 151 -142h182z" />
    <glyph glyph-name="afii10065" unicode="&#x430;" horiz-adv-x="526" 
d="M441 0h-72v47c-39 -39 -76 -53 -142 -53c-68 0 -105 12 -139 45c-25 24 -37 61 -37 100c0 87 61 142 171 142h147v47c0 71 -35 108 -126 108c-62 0 -94 -16 -124 -57l-49 45c43 57 93 74 174 74c133 0 197 -58 197 -164v-334zM369 174v53h-137c-74 0 -111 -29 -111 -87
c0 -57 35 -84 114 -84c41 0 77 4 109 33c17 16 25 44 25 85z" />
    <glyph glyph-name="afii10066" unicode="&#x431;" horiz-adv-x="533" 
d="M273 58c33 0 66 13 88 36c27 29 39 71 39 148c0 79 -10 125 -38 154c-22 23 -55 38 -89 38c-35 0 -67 -14 -90 -38c-26 -28 -41 -74 -41 -152c0 -80 14 -121 42 -150c22 -23 55 -36 89 -36zM273 -6c-91 0 -158 49 -184 131c-17 54 -18 147 -18 218c0 194 7 247 69 305
c72 69 195 62 294 69v-65c-66 -8 -186 0 -243 -49c-46 -40 -55 -98 -55 -181c24 44 84 73 148 73c50 0 92 -15 123 -44c44 -41 64 -114 64 -204c0 -98 -17 -156 -60 -199c-33 -34 -83 -54 -138 -54z" />
    <glyph glyph-name="afii10067" unicode="&#x432;" horiz-adv-x="539" 
d="M472 136c0 -84 -55 -136 -147 -136h-234v492h228c87 0 145 -51 145 -129c0 -53 -28 -90 -78 -108c53 -20 86 -59 86 -119zM393 357c0 47 -31 73 -87 73h-144v-147h144c57 0 87 27 87 74zM401 143c0 49 -33 81 -89 81h-150v-162h150c56 0 89 32 89 81z" />
    <glyph glyph-name="afii10068" unicode="&#x433;" horiz-adv-x="417" 
d="M406 430h-240v-430h-72v492h312v-62z" />
    <glyph glyph-name="afii10069" unicode="&#x434;" horiz-adv-x="556" 
d="M523 -147h-70v147h-366v-147h-69v209h58c37 82 65 157 65 336v94h309v-430h73v-209zM378 62v368h-168v-93c-1 -130 -24 -202 -56 -275h224z" />
    <glyph glyph-name="afii10070" unicode="&#x435;" horiz-adv-x="530" 
d="M467 227h-332c0 -108 50 -170 145 -170c57 0 90 17 129 56l49 -43c-50 -50 -97 -76 -180 -76c-131 0 -215 78 -215 252c0 160 77 252 202 252c128 0 202 -91 202 -239v-32zM396 281c-3 40 -4 56 -16 82c-21 45 -62 74 -115 74s-94 -29 -115 -74c-12 -26 -13 -42 -15 -82
h261z" />
    <glyph glyph-name="afii10072" unicode="&#x436;" horiz-adv-x="717" 
d="M711 0h-91l-225 255l209 237h87l-211 -232zM394 0h-71v492h71v-492zM97 0h-91l231 260l-211 232h88l208 -237z" />
    <glyph glyph-name="afii10073" unicode="&#x437;" horiz-adv-x="482" 
d="M415 139c0 -89 -87 -144 -186 -144c-79 0 -139 17 -197 70l45 47c44 -41 83 -55 144 -55c59 0 124 31 124 85c0 55 -41 82 -101 82h-72v60h73c54 0 92 28 92 79c0 50 -44 75 -111 75c-49 0 -92 -13 -132 -41l-41 48c54 39 112 53 180 53c97 0 174 -47 174 -133
c0 -49 -28 -92 -78 -110c52 -16 86 -60 86 -116z" />
    <glyph glyph-name="afii10074" unicode="&#x438;" horiz-adv-x="577" 
d="M487 0h-72v381l-253 -381h-71v492h71v-379l253 379h72v-492z" />
    <glyph glyph-name="afii10075" unicode="&#x439;" horiz-adv-x="577" 
d="M435 704c-6 -90 -63 -126 -146 -126s-140 36 -146 126h64c4 -50 33 -75 82 -75s78 25 82 75h64zM487 0h-72v381l-253 -381h-71v492h71v-379l253 379h72v-492z" />
    <glyph glyph-name="afii10076" unicode="&#x43a;" horiz-adv-x="499" 
d="M166 0h-72v492h72v-492zM493 0h-93l-233 255l217 237h89l-221 -232z" />
    <glyph glyph-name="afii10077" unicode="&#x43b;" horiz-adv-x="546" 
d="M456 0h-72v430h-174v-170c0 -206 -66 -260 -156 -260h-33v62h16c44 0 104 14 104 219v211h315v-492z" />
    <glyph glyph-name="afii10078" unicode="&#x43c;" horiz-adv-x="656" 
d="M565 0h-72v350l-137 -272h-55l-139 272v-350h-71v492h71l167 -331l165 331h71v-492z" />
    <glyph glyph-name="afii10079" unicode="&#x43d;" horiz-adv-x="561" 
d="M471 0h-72v223h-238v-223h-71v492h71v-207h238v207h72v-492z" />
    <glyph glyph-name="afii10080" unicode="&#x43e;" horiz-adv-x="530" 
d="M466 246c0 -76 -10 -145 -60 -196c-34 -35 -81 -56 -141 -56s-107 21 -141 56c-50 51 -60 120 -60 196s10 146 60 196c34 35 81 56 141 56s107 -21 141 -56c50 -50 60 -120 60 -196zM394 246c0 56 -3 116 -39 152c-24 24 -55 36 -90 36s-65 -12 -89 -36
c-36 -36 -40 -96 -40 -152c0 -55 3 -115 40 -152c24 -24 54 -36 89 -36s66 12 90 36c36 37 39 97 39 152z" />
    <glyph glyph-name="afii10081" unicode="&#x43f;" horiz-adv-x="556" 
d="M471 0h-72v430h-238v-430h-71v492h381v-492z" />
    <glyph glyph-name="afii10082" unicode="&#x440;" horiz-adv-x="545" 
d="M481 246c0 -79 -11 -159 -60 -209c-26 -26 -69 -43 -120 -43c-54 0 -98 13 -139 64v-278h-72v712h72v-58c41 51 84 64 139 64c51 0 94 -17 120 -43c49 -49 60 -130 60 -209zM409 246c0 96 -16 188 -123 188c-108 0 -124 -92 -124 -188s16 -188 124 -188
c107 0 123 92 123 188z" />
    <glyph glyph-name="afii10083" unicode="&#x441;" horiz-adv-x="490" 
d="M443 67c-33 -34 -49 -46 -76 -58c-24 -10 -51 -15 -83 -15c-138 0 -221 95 -221 252s83 252 221 252c32 0 59 -5 83 -15c27 -12 43 -24 76 -58l-49 -46c-25 26 -37 36 -56 44c-16 7 -34 11 -55 11c-97 0 -148 -64 -148 -188s50 -188 147 -188c21 0 38 3 54 10
c20 9 32 19 58 46z" />
    <glyph glyph-name="afii10084" unicode="&#x442;" horiz-adv-x="423" 
d="M413 430h-161v-430h-72v430h-169v62h402v-62z" />
    <glyph glyph-name="afii10085" unicode="&#x443;" horiz-adv-x="447" 
d="M436 492l-224 -611c-23 -63 -64 -92 -131 -92h-31v64h22c47 0 63 12 81 61l35 96l-177 482h78l135 -395l134 395h78z" />
    <glyph glyph-name="afii10086" unicode="&#x444;" horiz-adv-x="690" 
d="M630 247c0 -162 -94 -245 -249 -253v-214h-72v214c-155 8 -249 91 -249 253c0 161 93 243 249 251v214h72v-214c156 -8 249 -90 249 -251zM558 246c0 107 -50 184 -177 188v-376c117 3 177 75 177 188zM309 58v376c-126 -4 -177 -81 -177 -188c0 -113 60 -185 177 -188z
" />
    <glyph glyph-name="afii10087" unicode="&#x445;" horiz-adv-x="478" 
d="M445 0h-87l-118 191l-120 -191h-87l167 251l-160 241h87l113 -182l111 182h87l-160 -241z" />
    <glyph glyph-name="afii10088" unicode="&#x446;" horiz-adv-x="579" 
d="M546 -147h-70v147h-385v492h71v-430h238v430h72v-430h74v-209z" />
    <glyph glyph-name="afii10089" unicode="&#x447;" horiz-adv-x="523" 
d="M433 0h-72v192c-37 -8 -91 -19 -148 -19c-86 0 -143 43 -143 140v179h72v-166c0 -65 30 -88 85 -88c51 0 100 9 134 16v238h72v-492z" />
    <glyph glyph-name="afii10090" unicode="&#x448;" horiz-adv-x="801" 
d="M710 0h-619v492h71v-430h202v430h72v-430h202v430h72v-492z" />
    <glyph glyph-name="afii10091" unicode="&#x449;" horiz-adv-x="816" 
d="M784 -147h-70v147h-623v492h71v-430h202v430h72v-430h202v430h72v-430h74v-209z" />
    <glyph glyph-name="afii10092" unicode="&#x44a;" horiz-adv-x="563" 
d="M523 148c0 -89 -62 -148 -156 -148h-219v430h-137v62h208v-195h148c94 0 156 -59 156 -149zM451 148c0 55 -32 86 -92 86h-140v-172h140c60 0 92 31 92 86z" />
    <glyph glyph-name="afii10093" unicode="&#x44b;" horiz-adv-x="718" 
d="M617 0h-72v492h72v-492zM466 148c0 -89 -62 -148 -156 -148h-219v492h71v-195h148c94 0 156 -59 156 -149zM394 148c0 55 -32 86 -92 86h-140v-172h140c60 0 92 31 92 86z" />
    <glyph glyph-name="afii10094" unicode="&#x44c;" horiz-adv-x="506" 
d="M466 148c0 -89 -62 -148 -156 -148h-219v492h71v-195h148c94 0 156 -59 156 -149zM394 148c0 55 -32 86 -92 86h-140v-172h140c60 0 92 31 92 86z" />
    <glyph glyph-name="afii10095" unicode="&#x44d;" horiz-adv-x="490" 
d="M426 247c0 -159 -82 -253 -220 -253c-72 0 -110 22 -159 73l48 46c35 -37 63 -56 113 -56c103 0 145 77 147 170h-202v54h201c-6 88 -52 154 -147 154c-49 0 -78 -20 -112 -56l-48 46c49 51 87 73 159 73c138 0 220 -94 220 -251z" />
    <glyph glyph-name="afii10096" unicode="&#x44e;" horiz-adv-x="728" 
d="M664 246c0 -76 -10 -145 -60 -196c-34 -35 -81 -56 -141 -56s-107 21 -141 56c-45 45 -58 105 -60 172h-100v-222h-71v492h71v-209h101c3 61 17 117 59 159c34 35 81 56 141 56s107 -21 141 -56c50 -50 60 -120 60 -196zM592 246c0 56 -3 116 -39 152
c-24 24 -54 36 -90 36c-35 0 -65 -12 -89 -36c-36 -36 -40 -96 -40 -152c0 -55 3 -115 40 -152c23 -24 54 -36 89 -36c36 0 66 12 90 36c36 37 39 97 39 152z" />
    <glyph glyph-name="afii10097" unicode="&#x44f;" horiz-adv-x="527" 
d="M365 252v181h-139c-63 0 -98 -33 -98 -91c0 -57 35 -90 98 -90h139zM140 0h-83l115 202c-70 14 -115 68 -115 143c0 88 62 147 155 147h224v-492h-71v193h-118z" />
    <glyph glyph-name="uni0450" unicode="&#x450;" horiz-adv-x="530" 
d="M467 227h-332c0 -108 50 -170 145 -170c57 0 90 17 129 56l49 -43c-50 -50 -97 -76 -180 -76c-131 0 -215 78 -215 252c0 160 77 252 202 252c128 0 202 -91 202 -239v-32zM396 281c-3 40 -4 56 -16 82c-21 45 -62 74 -115 74s-94 -29 -115 -74c-12 -26 -13 -42 -15 -82
h261zM318 594h-69l-105 153h83z" />
    <glyph glyph-name="afii10071" unicode="&#x451;" horiz-adv-x="530" 
d="M467 227h-332c0 -108 50 -170 145 -170c57 0 90 17 129 56l49 -43c-50 -50 -97 -76 -180 -76c-131 0 -215 78 -215 252c0 160 77 252 202 252c128 0 202 -91 202 -239v-32zM396 281c-3 40 -4 56 -16 82c-21 45 -62 74 -115 74s-94 -29 -115 -74c-12 -26 -13 -42 -15 -82
h261zM410 602h-72v89h72v-89zM198 602h-72v89h72v-89z" />
    <glyph glyph-name="afii10099" unicode="&#x452;" horiz-adv-x="562" 
d="M477 -70c0 -81 -43 -151 -146 -151h-48v62h36c55 0 86 41 86 92v365c0 84 -39 131 -116 131s-127 -49 -127 -131v-298h-71v562h-58v54h58v96h71v-96h248v-54h-248v-130c42 42 83 61 143 61c108 0 172 -71 172 -183v-380z" />
    <glyph glyph-name="afii10100" unicode="&#x453;" horiz-adv-x="417" 
d="M406 430h-240v-430h-72v492h312v-62zM344 747l-105 -153h-69l91 153h83z" />
    <glyph glyph-name="afii10101" unicode="&#x454;" horiz-adv-x="490" 
d="M443 67c-49 -51 -87 -73 -160 -73c-138 0 -220 94 -220 253c0 157 83 251 220 251c73 0 110 -22 160 -73l-48 -46c-35 36 -63 56 -113 56c-94 0 -140 -66 -146 -154h209v-54h-210c2 -93 43 -170 147 -170c50 0 78 19 113 56z" />
    <glyph glyph-name="afii10102" unicode="&#x455;" horiz-adv-x="496" 
d="M445 144c0 -95 -81 -150 -200 -150c-83 0 -148 19 -202 71l48 48c39 -41 92 -57 153 -57c81 0 131 29 131 87c0 43 -25 67 -82 72l-81 7c-96 8 -147 51 -147 132c0 90 76 144 181 144c70 0 133 -17 177 -53l-47 -47c-35 27 -80 39 -131 39c-72 0 -110 -31 -110 -81
c0 -42 24 -67 86 -72l79 -7c86 -8 145 -41 145 -133z" />
    <glyph glyph-name="afii10103" unicode="&#x456;" horiz-adv-x="253" 
d="M162 0h-72v492h72v-492zM167 632h-81v81h81v-81z" />
    <glyph glyph-name="afii10104" unicode="&#x457;" horiz-adv-x="253" 
d="M162 0h-72v492h72v-492zM269 602h-72v89h72v-89zM57 602h-72v89h72v-89z" />
    <glyph glyph-name="afii10105" unicode="&#x458;" horiz-adv-x="253" 
d="M162 -89c0 -75 -39 -132 -125 -132h-52v63h39c50 0 66 24 66 72v578h72v-581zM167 632h-81v81h81v-81z" />
    <glyph glyph-name="afii10106" unicode="&#x459;" horiz-adv-x="801" 
d="M689 148c0 55 -32 86 -92 86h-140v-172h140c60 0 92 31 92 86zM141 492h316v-195h148c94 0 156 -59 156 -149c0 -89 -62 -148 -156 -148h-219v430h-176v-170c0 -206 -66 -260 -156 -260h-33v62h16c44 0 104 14 104 219v211z" />
    <glyph glyph-name="afii10107" unicode="&#x45a;" horiz-adv-x="816" 
d="M776 148c0 -89 -62 -148 -156 -148h-220v234h-238v-234h-71v492h71v-195h238v195h72v-195h148c94 0 156 -59 156 -149zM704 148c0 55 -32 86 -92 86h-140v-172h140c60 0 92 31 92 86z" />
    <glyph glyph-name="afii10108" unicode="&#x45b;" horiz-adv-x="562" 
d="M477 0h-72v298c0 84 -43 131 -120 131s-123 -49 -123 -131v-298h-71v562h-58v54h58v96h71v-96h248v-54h-248v-130c42 42 79 61 139 61c108 0 176 -71 176 -183v-310z" />
    <glyph glyph-name="afii10109" unicode="&#x45c;" horiz-adv-x="499" 
d="M166 0h-72v492h72v-492zM493 0h-93l-233 255l217 237h89l-221 -232zM386 747l-105 -153h-69l91 153h83z" />
    <glyph glyph-name="uni045D" unicode="&#x45d;" horiz-adv-x="577" 
d="M487 0h-72v381l-253 -381h-71v492h71v-379l253 379h72v-492zM328 594h-69l-105 153h83z" />
    <glyph glyph-name="afii10110" unicode="&#x45e;" horiz-adv-x="447" 
d="M370 704c-6 -90 -63 -126 -146 -126s-140 36 -146 126h64c4 -50 33 -75 82 -75s78 25 82 75h64zM436 492l-224 -611c-23 -63 -64 -92 -131 -92h-31v64h22c47 0 63 12 81 61l35 96l-177 482h78l135 -395l134 395h78z" />
    <glyph glyph-name="afii10193" unicode="&#x45f;" horiz-adv-x="563" 
d="M472 0h-156v-147h-70v147h-155v492h71v-430h238v430h72v-492z" />
    <glyph glyph-name="afii10146" unicode="&#x462;" horiz-adv-x="644" 
d="M604 209c0 -125 -88 -209 -220 -209h-267v552h-78v59h78v101h76v-101h162v-59h-162v-133h191c133 0 220 -84 220 -210zM527 209c0 90 -55 142 -150 142h-184v-283h184c95 0 150 52 150 141z" />
    <glyph glyph-name="afii10194" unicode="&#x463;" horiz-adv-x="506" 
d="M466 148c0 -89 -62 -148 -156 -148h-219v390h-68v48h68v54h71v-54h83v-48h-83v-93h148c94 0 156 -59 156 -149zM394 148c0 55 -32 86 -92 86h-140v-172h140c60 0 92 31 92 86z" />
    <glyph glyph-name="afii10147" unicode="&#x472;" 
d="M574 356c0 -163 -3 -223 -72 -292c-44 -44 -103 -70 -177 -70s-134 26 -178 70c-67 67 -71 129 -71 292s4 225 71 292c44 44 104 70 178 70s133 -26 177 -70c69 -69 72 -129 72 -292zM448 112c41 42 49 90 50 212h-346c1 -122 8 -170 50 -212c32 -33 75 -50 123 -50
s90 17 123 50zM202 600c-41 -42 -49 -90 -50 -209h346c-1 119 -9 167 -50 209c-33 33 -75 50 -123 50s-91 -17 -123 -50z" />
    <glyph glyph-name="afii10195" unicode="&#x473;" horiz-adv-x="530" 
d="M466 246c0 -76 -10 -145 -60 -196c-34 -34 -81 -56 -141 -56s-107 22 -141 56c-50 51 -60 120 -60 196s10 145 60 196c34 34 81 56 141 56s107 -22 141 -56c50 -51 60 -120 60 -196zM355 94c32 32 38 83 39 133h-258c1 -50 8 -101 40 -133c23 -23 54 -36 89 -36
s67 13 90 36zM176 398c-29 -29 -37 -73 -40 -117h257c-2 44 -10 88 -38 117c-23 23 -55 36 -90 36s-66 -13 -89 -36z" />
    <glyph glyph-name="afii10148" unicode="&#x474;" horiz-adv-x="546" 
d="M273 136l149 465c22 67 69 111 140 111h62v-68h-37c-49 0 -77 -20 -94 -71l-189 -573h-62l-234 712h80z" />
    <glyph glyph-name="afii10196" unicode="&#x475;" horiz-adv-x="447" 
d="M390 367l-135 -367h-64l-180 492h78l134 -395l104 303c22 63 64 92 131 92h31v-64h-18c-46 0 -63 -12 -81 -61z" />
    <glyph glyph-name="afii10050" unicode="&#x490;" horiz-adv-x="569" 
d="M538 644h-352v-644h-76v712h353v172h75v-240z" />
    <glyph glyph-name="afii10098" unicode="&#x491;" horiz-adv-x="417" 
d="M406 430h-240v-430h-72v492h242v142h70v-204z" />
    <glyph glyph-name="uni0492" unicode="&#x492;" horiz-adv-x="576" 
d="M545 644h-352v-255h162v-59h-162v-330h-76v330h-78v59h78v323h428v-68z" />
    <glyph glyph-name="uni0493" unicode="&#x493;" horiz-adv-x="417" 
d="M406 430h-240v-136h82v-48h-82v-246h-72v246h-68v48h68v198h312v-62z" />
    <glyph glyph-name="uni0496" unicode="&#x496;" horiz-adv-x="902" 
d="M876 712l-299 -338l266 -306h60v-240h-75v172h-25l-313 372l290 340h96zM99 0h-100l326 374l-300 338h96l291 -340zM489 0h-76v712h76v-712z" />
    <glyph glyph-name="uni0497" unicode="&#x497;" horiz-adv-x="715" 
d="M691 492l-211 -232l176 -198h55v-209h-70v147h-21l-225 255l209 237h87zM97 0h-91l231 260l-211 232h88l208 -237zM394 0h-71v492h71v-492z" />
    <glyph glyph-name="uni049A" unicode="&#x49a;" horiz-adv-x="610" 
d="M585 712l-312 -338l277 -306h62v-240h-75v172h-26l-327 372l305 340h96zM183 0h-76v712h76v-712z" />
    <glyph glyph-name="uni049B" unicode="&#x49b;" horiz-adv-x="498" 
d="M473 492l-221 -232l183 -198h58v-209h-70v147h-23l-233 255l217 237h89zM166 0h-72v492h72v-492z" />
    <glyph glyph-name="uni049C" unicode="&#x49c;" horiz-adv-x="662" 
d="M663 0h-99l-246 334h-29v-156h-63v156h-43v-334h-76v712h76v-311h43v156h63v-156h27l226 311h95l-257 -342z" />
    <glyph glyph-name="uni049D" unicode="&#x49d;" horiz-adv-x="552" 
d="M546 0h-93l-161 224h-26v-130h-61v130h-39v-224h-72v492h72v-208h39v130h61v-130h25l146 208h89l-170 -232z" />
    <glyph glyph-name="uni04A2" unicode="&#x4a2;" horiz-adv-x="696" 
d="M593 712v-644h37v-240h-75v172h-38v325h-338v-325h-76v712h76v-319h338v319h76z" />
    <glyph glyph-name="uni04A3" unicode="&#x4a3;" horiz-adv-x="696" 
d="M179 0h-76v712h76v-712zM517 712h76v-644h37v-240h-75v172h-38v712z" />
    <glyph glyph-name="uni04AE" unicode="&#x4ae;" horiz-adv-x="514" 
d="M506 712l-210 -418v-294h-76v294l-212 418h82l168 -341l166 341h82z" />
    <glyph glyph-name="uni04AF" unicode="&#x4af;" horiz-adv-x="447" 
d="M435 492l-176 -487v-225h-71v225l-176 487h77l135 -398l134 398h77z" />
    <glyph glyph-name="uni04B0" unicode="&#x4b0;" horiz-adv-x="514" 
d="M506 712l-210 -418h72v-48h-72v-246h-76v246h-74v48h74l-212 418h82l168 -341l166 341h82z" />
    <glyph glyph-name="uni04B1" unicode="&#x4b1;" horiz-adv-x="447" 
d="M435 492l-176 -487h75v-48h-75v-177h-71v177h-76v48h76l-176 487h77l135 -398l134 398h77z" />
    <glyph glyph-name="uni04B2" unicode="&#x4b2;" horiz-adv-x="551" 
d="M521 712l-205 -347l179 -297h41v-240h-75v172h-13l-173 299l-174 -299h-86l218 365l-204 347h88l158 -281l158 281h88z" />
    <glyph glyph-name="uni04B3" unicode="&#x4b3;" horiz-adv-x="478" 
d="M438 492l-160 -241l125 -189h42v-209h-70v147h-17l-118 191l-120 -191h-87l167 251l-160 241h87l113 -182l111 182h87z" />
    <glyph glyph-name="uni04B6" unicode="&#x4b6;" horiz-adv-x="645" 
d="M542 712v-644h37v-240h-75v172h-38v291c-44 -9 -137 -27 -201 -27c-97 0 -189 44 -189 178v270h76v-256c0 -103 66 -124 132 -124c51 0 137 16 182 25v355h76z" />
    <glyph glyph-name="uni04B7" unicode="&#x4b7;" horiz-adv-x="523" 
d="M433 492v-430h34v-209h-70v147h-36v192c-37 -8 -91 -19 -148 -19c-86 0 -143 43 -143 140v179h72v-166c0 -65 30 -88 85 -88c51 0 100 9 134 16v238h72z" />
    <glyph glyph-name="uni04B8" unicode="&#x4b8;" horiz-adv-x="649" 
d="M344 108h-65v156h-12c-98 0 -191 44 -191 178v270h76v-256c0 -100 63 -123 127 -124v156h65v-152c45 5 95 14 126 21v355h76v-712h-76v291c-29 -6 -78 -15 -126 -21v-162z" />
    <glyph glyph-name="uni04B9" unicode="&#x4b9;" horiz-adv-x="536" 
d="M287 46h-58v127h-10c-89 0 -149 43 -149 140v179h72v-166c0 -62 34 -85 87 -87v127h58v-125c33 3 64 8 87 13v238h72v-492h-72v192c-23 -5 -54 -11 -87 -15v-131z" />
    <glyph glyph-name="uni04BA" unicode="&#x4ba;" horiz-adv-x="645" 
d="M103 712h76v-291c44 9 137 27 201 27c97 0 189 -44 189 -178v-270h-76v256c0 103 -66 124 -132 124c-51 0 -137 -16 -182 -25v-355h-76v712z" />
    <glyph glyph-name="uni04BB" unicode="&#x4bb;" horiz-adv-x="523" 
d="M90 492h72v-192c37 8 91 19 148 19c86 0 143 -43 143 -140v-179h-72v166c0 65 -30 88 -85 88c-51 0 -100 -9 -134 -16v-238h-72v492z" />
    <glyph glyph-name="uni04C0" unicode="&#x4c0;" horiz-adv-x="282" 
d="M179 0h-76v712h76v-712z" />
    <glyph glyph-name="uni04CF" unicode="&#x4cf;" horiz-adv-x="248" 
d="M160 0h-72v712h72v-712z" />
    <glyph glyph-name="uni04D8" unicode="&#x4d8;" 
d="M74 260v113h424c-1 135 -7 182 -50 226c-31 32 -76 51 -123 51c-89 0 -153 -55 -173 -145h-76c21 125 113 213 249 213c71 0 134 -26 182 -74c67 -67 67 -137 67 -288s0 -221 -67 -288c-48 -48 -112 -74 -182 -74c-73 0 -140 28 -190 82c-44 47 -61 102 -61 184zM150 306
v-54c0 -55 11 -94 40 -129c33 -40 83 -61 135 -61c47 0 92 18 123 50c39 40 48 83 50 194h-348z" />
    <glyph glyph-name="afii10846" unicode="&#x4d9;" horiz-adv-x="530" 
d="M63 265h332c0 108 -50 170 -145 170c-57 0 -90 -17 -129 -56l-49 43c50 50 97 76 180 76c131 0 215 -78 215 -252c0 -160 -77 -252 -202 -252c-128 0 -202 91 -202 239v32zM134 211c3 -40 4 -54 16 -82c20 -47 62 -74 115 -74s96 28 115 74c11 27 13 44 15 82h-261z" />
    <glyph glyph-name="uni04E2" unicode="&#x4e2;" horiz-adv-x="716" 
d="M613 0h-76v581l-362 -581h-72v712h76v-580l362 580h72v-712zM208 798v57h301v-57h-301z" />
    <glyph glyph-name="uni04E3" unicode="&#x4e3;" horiz-adv-x="577" 
d="M487 0h-72v381l-253 -381h-71v492h71v-379l253 379h72v-492zM440 602h-301v56h301v-56z" />
    <glyph glyph-name="uni04E8" unicode="&#x4e8;" 
d="M574 356c0 -163 -3 -223 -72 -292c-44 -44 -103 -70 -177 -70s-134 26 -178 70c-67 67 -71 129 -71 292s4 225 71 292c44 44 104 70 178 70s133 -26 177 -70c69 -69 72 -129 72 -292zM448 112c41 42 49 90 50 212h-346c1 -122 8 -170 50 -212c32 -33 75 -50 123 -50
s90 17 123 50zM202 600c-41 -42 -49 -90 -50 -209h346c-1 119 -9 167 -50 209c-33 33 -75 50 -123 50s-91 -17 -123 -50z" />
    <glyph glyph-name="uni04E9" unicode="&#x4e9;" horiz-adv-x="530" 
d="M466 246c0 -76 -10 -145 -60 -196c-34 -34 -81 -56 -141 -56s-107 22 -141 56c-50 51 -60 120 -60 196s10 145 60 196c34 34 81 56 141 56s107 -22 141 -56c50 -51 60 -120 60 -196zM355 94c32 32 38 83 39 133h-258c1 -50 8 -101 40 -133c23 -23 54 -36 89 -36
s67 13 90 36zM176 398c-29 -29 -37 -73 -40 -117h257c-2 44 -10 88 -38 117c-23 23 -55 36 -90 36s-66 -13 -89 -36z" />
    <glyph glyph-name="uni04EE" unicode="&#x4ee;" horiz-adv-x="546" 
d="M537 712l-258 -601c-28 -65 -69 -111 -140 -111h-62v68h45c49 0 73 22 94 71l29 67l-235 506h81l192 -421l173 421h81zM132 798v57h301v-57h-301z" />
    <glyph glyph-name="uni04EF" unicode="&#x4ef;" horiz-adv-x="447" 
d="M436 492l-224 -611c-23 -63 -64 -92 -131 -92h-31v64h22c47 0 63 12 81 61l35 96l-177 482h78l135 -395l134 395h78zM374 602h-301v56h301v-56z" />
    <glyph glyph-name="Wgrave" unicode="&#x1e80;" horiz-adv-x="854" 
d="M838 712l-182 -712h-71l-158 570l-158 -570h-71l-182 712h81l139 -574l157 574h68l157 -574l139 574h81zM464 780h-69l-105 154h83z" />
    <glyph glyph-name="wgrave" unicode="&#x1e81;" horiz-adv-x="724" 
d="M713 492l-155 -492h-67l-129 382l-128 -382h-67l-156 492h78l113 -395l129 395h62l130 -395l112 395h78zM396 594h-69l-105 153h83z" />
    <glyph glyph-name="Wacute" unicode="&#x1e82;" horiz-adv-x="854" 
d="M838 712l-182 -712h-71l-158 570l-158 -570h-71l-182 712h81l139 -574l157 574h68l157 -574l139 574h81zM561 934l-105 -154h-69l91 154h83z" />
    <glyph glyph-name="wacute" unicode="&#x1e83;" horiz-adv-x="724" 
d="M713 492l-155 -492h-67l-129 382l-128 -382h-67l-156 492h78l113 -395l129 395h62l130 -395l112 395h78zM502 747l-105 -153h-69l91 153h83z" />
    <glyph glyph-name="Wdieresis" unicode="&#x1e84;" horiz-adv-x="854" 
d="M838 712l-182 -712h-71l-158 570l-158 -570h-71l-182 712h81l139 -574l157 574h68l157 -574l139 574h81zM569 789h-72v89h72v-89zM357 789h-72v89h72v-89z" />
    <glyph glyph-name="wdieresis" unicode="&#x1e85;" horiz-adv-x="724" 
d="M713 492l-155 -492h-67l-129 382l-128 -382h-67l-156 492h78l113 -395l129 395h62l130 -395l112 395h78zM504 602h-72v89h72v-89zM292 602h-72v89h72v-89z" />
    <glyph glyph-name="uni1E8A" unicode="&#x1e8a;" horiz-adv-x="551" 
d="M536 0h-88l-173 299l-174 -299h-86l218 365l-204 347h88l158 -281l158 281h88l-205 -347zM238 797v76h75v-76h-75z" />
    <glyph glyph-name="uni1E8B" unicode="&#x1e8b;" horiz-adv-x="478" 
d="M445 0h-87l-118 191l-120 -191h-87l167 251l-160 241h87l113 -182l111 182h87l-160 -241zM203 610v77h75v-77h-75z" />
    <glyph glyph-name="Ygrave" unicode="&#x1ef2;" horiz-adv-x="514" 
d="M506 712l-210 -418v-294h-76v294l-212 418h82l168 -341l166 341h82zM296 780h-69l-105 154h83z" />
    <glyph glyph-name="ygrave" unicode="&#x1ef3;" horiz-adv-x="447" 
d="M436 492l-224 -611c-10 -27 -21 -45 -35 -58c-26 -25 -61 -34 -96 -34h-31v64h22c50 0 65 16 81 61l35 96l-177 482h78l135 -395l134 395h78zM255 594h-69l-105 153h83z" />
    <glyph glyph-name="uni2007" unicode="&#x2007;" horiz-adv-x="522" 
 />
    <glyph glyph-name="uni2008" unicode="&#x2008;" horiz-adv-x="270" 
 />
    <glyph glyph-name="uni200B" unicode="&#x200b;" horiz-adv-x="0" 
 />
    <glyph glyph-name="uniFEFF" unicode="&#xfeff;" horiz-adv-x="0" 
 />
    <glyph glyph-name="endash" unicode="&#x2013;" horiz-adv-x="522" 
d="M470 236h-418v67h418v-67z" />
    <glyph glyph-name="emdash" unicode="&#x2014;" horiz-adv-x="914" 
d="M838 236h-762v68h762v-68z" />
    <glyph glyph-name="afii00208" unicode="&#x2015;" horiz-adv-x="914" 
d="M838 236h-762v68h762v-68z" />
    <glyph glyph-name="quoteleft" unicode="&#x2018;" horiz-adv-x="263" 
d="M175 628h-87v84l87 79v-163z" />
    <glyph glyph-name="quoteright" unicode="&#x2019;" horiz-adv-x="263" 
d="M175 628l-87 -79v163h87v-84z" />
    <glyph glyph-name="quotesinglbase" unicode="&#x201a;" horiz-adv-x="263" 
d="M175 0l-87 -79v163h87v-84z" />
    <glyph glyph-name="quotedblleft" unicode="&#x201c;" horiz-adv-x="434" 
d="M346 628h-88v84l88 79v-163zM175 628h-87v84l87 79v-163z" />
    <glyph glyph-name="quotedblright" unicode="&#x201d;" horiz-adv-x="434" 
d="M346 628l-88 -79v163h88v-84zM175 628l-87 -79v163h87v-84z" />
    <glyph glyph-name="quotedblbase" unicode="&#x201e;" horiz-adv-x="434" 
d="M346 0l-88 -79v163h88v-84zM175 0l-87 -79v163h87v-84z" />
    <glyph glyph-name="dagger" unicode="&#x2020;" horiz-adv-x="605" 
d="M531 445h-194v-445h-72v445h-191v64h191v203h72v-203h194v-64z" />
    <glyph glyph-name="daggerdbl" unicode="&#x2021;" horiz-adv-x="605" 
d="M531 -16h-194v-204h-72v204h-191v64h191v397h-191v64h191v203h72v-203h194v-64h-194v-397h194v-64z" />
    <glyph glyph-name="bullet" unicode="&#x2022;" horiz-adv-x="532" 
d="M429 334c0 -90 -73 -163 -163 -163s-163 73 -163 163s73 163 163 163s163 -73 163 -163z" />
    <glyph glyph-name="ellipsis" unicode="&#x2026;" horiz-adv-x="757" 
d="M669 0h-92v92h92v-92zM180 0h-92v92h92v-92zM424 0h-92v92h92v-92z" />
    <glyph glyph-name="perthousand" unicode="&#x2030;" horiz-adv-x="1179" 
d="M1115 128c0 -82 -58 -135 -135 -135c-78 0 -135 53 -135 135v105c0 82 57 135 135 135c77 0 135 -53 135 -135v-105zM769 128c0 -82 -58 -135 -135 -135c-78 0 -135 53 -135 135v105c0 82 57 135 135 135c77 0 135 -53 135 -135v-105zM335 479c0 -81 -58 -134 -135 -134
c-78 0 -135 53 -135 134v105c0 82 57 135 135 135c77 0 135 -53 135 -135v-105zM614 712l-334 -712h-60l334 712h60zM712 130v101c0 53 -24 87 -78 87c-55 0 -78 -33 -78 -87v-101c0 -54 23 -87 78 -87c54 0 78 34 78 87zM1058 130v101c0 53 -24 87 -78 87
c-55 0 -78 -33 -78 -87v-101c0 -54 23 -87 78 -87c54 0 78 34 78 87zM278 481v101c0 53 -24 87 -78 87c-55 0 -78 -33 -78 -87v-101c0 -54 24 -86 78 -86s78 33 78 86z" />
    <glyph glyph-name="guilsinglleft" unicode="&#x2039;" horiz-adv-x="328" 
d="M250 58l-210 210l210 210v-90l-120 -120l120 -121v-89z" />
    <glyph glyph-name="guilsinglright" unicode="&#x203a;" horiz-adv-x="328" 
d="M288 268l-210 -210v89l121 121l-121 120v90z" />
    <glyph glyph-name="fraction" unicode="&#x2044;" horiz-adv-x="185" 
d="M289 712l-333 -712h-60l333 712h60z" />
    <glyph glyph-name="uni2070" unicode="&#x2070;" horiz-adv-x="318" 
d="M281 403c0 -75 -54 -122 -122 -122s-122 47 -122 122v191c0 75 54 122 122 122s122 -47 122 -122v-191zM224 404v189c0 42 -24 72 -65 72c-40 0 -64 -29 -64 -72v-189c0 -43 24 -71 64 -71c41 0 65 29 65 71z" />
    <glyph glyph-name="uni2074" unicode="&#x2074;" horiz-adv-x="318" 
d="M298 350h-47v-65h-57v65h-172v52l151 310h62l-151 -310h110v105h57v-105h47v-52z" />
    <glyph glyph-name="uni2075" unicode="&#x2075;" horiz-adv-x="318" 
d="M285 427c0 -45 -5 -83 -35 -113c-20 -20 -50 -33 -89 -33c-41 0 -71 13 -90 32c-22 22 -30 48 -32 80h57c5 -39 24 -60 65 -60c18 0 35 5 47 17c18 19 20 48 20 77c0 50 -13 93 -64 93c-34 0 -56 -16 -63 -40h-53v232h227v-52h-174v-117c15 16 39 25 71 25
c33 0 59 -9 76 -27c32 -32 37 -74 37 -114z" />
    <glyph glyph-name="uni2076" unicode="&#x2076;" horiz-adv-x="318" 
d="M284 411c0 -78 -50 -130 -124 -130s-125 49 -125 127c0 30 7 57 29 101l100 203h61l-92 -185c12 5 25 7 39 7c63 0 112 -50 112 -123zM226 409c0 44 -24 77 -67 77c-40 0 -67 -29 -67 -77c0 -47 27 -76 67 -76s67 29 67 76z" />
    <glyph glyph-name="uni2077" unicode="&#x2077;" horiz-adv-x="318" 
d="M290 661l-144 -376h-57l144 375h-140v-70h-54v122h251v-51z" />
    <glyph glyph-name="uni2078" unicode="&#x2078;" horiz-adv-x="318" 
d="M290 405c0 -76 -58 -124 -131 -124c-72 0 -130 48 -130 124c0 49 27 82 60 101c-30 19 -53 48 -53 92c0 70 54 118 123 118c70 0 124 -48 124 -118c0 -44 -22 -73 -53 -92c32 -19 60 -52 60 -101zM232 406c0 42 -31 74 -73 74c-41 0 -72 -32 -72 -74s31 -73 72 -73
c42 0 73 31 73 73zM225 597c0 39 -26 67 -66 67c-39 0 -65 -28 -65 -67c0 -38 27 -67 65 -67c39 0 66 29 66 67z" />
    <glyph glyph-name="uni2079" unicode="&#x2079;" horiz-adv-x="318" 
d="M284 589c0 -32 -8 -54 -30 -100l-100 -204h-61l93 185c-12 -4 -26 -7 -40 -7c-63 0 -112 50 -112 123c0 78 51 130 125 130s125 -49 125 -127zM226 588c0 47 -26 76 -67 76c-40 0 -67 -29 -67 -76c0 -43 24 -77 67 -77c40 0 67 29 67 77z" />
    <glyph glyph-name="uni2080" unicode="&#x2080;" horiz-adv-x="318" 
d="M281 -32c0 -75 -54 -122 -122 -122s-122 47 -122 122v191c0 75 54 122 122 122s122 -47 122 -122v-191zM224 -31v189c0 42 -24 72 -65 72c-40 0 -64 -29 -64 -72v-189c0 -43 24 -71 64 -71c41 0 65 29 65 71z" />
    <glyph glyph-name="uni2081" unicode="&#x2081;" horiz-adv-x="318" 
d="M207 -150h-57v363l-83 -73v66l83 71h57v-427z" />
    <glyph glyph-name="uni2082" unicode="&#x2082;" horiz-adv-x="318" 
d="M287 -150h-246v52l165 202c16 20 23 36 23 58c0 40 -24 67 -65 67c-34 0 -65 -18 -65 -67h-58c0 72 51 119 123 119s123 -46 123 -119c0 -37 -13 -60 -39 -92l-138 -168h177v-52z" />
    <glyph glyph-name="uni2083" unicode="&#x2083;" horiz-adv-x="318" 
d="M293 -30c0 -81 -58 -124 -129 -124c-69 0 -128 37 -131 119h58c3 -48 36 -67 73 -67c40 0 72 27 72 73c0 44 -25 72 -75 72h-9v51h9c45 0 68 27 68 67c0 44 -31 68 -66 68c-39 0 -64 -24 -67 -63h-57c4 72 57 115 124 115c73 0 123 -47 123 -119c0 -46 -20 -75 -54 -91
c38 -16 61 -48 61 -101z" />
    <glyph glyph-name="uni2084" unicode="&#x2084;" horiz-adv-x="318" 
d="M298 -85h-47v-65h-57v65h-172v52l151 310h62l-151 -310h110v105h57v-105h47v-52z" />
    <glyph glyph-name="uni2085" unicode="&#x2085;" horiz-adv-x="318" 
d="M285 -8c0 -45 -5 -83 -35 -113c-20 -20 -50 -33 -89 -33c-41 0 -71 13 -90 32c-22 22 -30 48 -32 80h57c5 -39 24 -60 65 -60c18 0 35 5 47 17c18 19 20 48 20 77c0 50 -13 93 -64 93c-34 0 -56 -16 -63 -40h-53v232h227v-52h-174v-117c15 16 39 25 71 25
c33 0 59 -9 76 -27c32 -32 37 -74 37 -114z" />
    <glyph glyph-name="uni2086" unicode="&#x2086;" horiz-adv-x="318" 
d="M284 -24c0 -78 -50 -130 -124 -130s-125 49 -125 127c0 30 7 57 29 101l100 203h61l-92 -185c12 5 25 7 39 7c63 0 112 -50 112 -123zM226 -26c0 44 -24 77 -67 77c-40 0 -67 -29 -67 -77c0 -47 27 -76 67 -76s67 29 67 76z" />
    <glyph glyph-name="uni2087" unicode="&#x2087;" horiz-adv-x="318" 
d="M290 226l-144 -376h-57l144 375h-140v-70h-54v122h251v-51z" />
    <glyph glyph-name="uni2088" unicode="&#x2088;" horiz-adv-x="318" 
d="M290 -30c0 -76 -58 -124 -131 -124c-72 0 -130 48 -130 124c0 49 27 82 60 101c-30 19 -53 48 -53 92c0 70 54 118 123 118c70 0 124 -48 124 -118c0 -44 -22 -73 -53 -92c32 -19 60 -52 60 -101zM232 -29c0 42 -31 74 -73 74c-41 0 -72 -32 -72 -74s31 -73 72 -73
c42 0 73 31 73 73zM225 162c0 39 -26 67 -66 67c-39 0 -65 -28 -65 -67c0 -38 27 -67 65 -67c39 0 66 29 66 67z" />
    <glyph glyph-name="uni2089" unicode="&#x2089;" horiz-adv-x="318" 
d="M284 154c0 -32 -8 -54 -30 -100l-100 -204h-61l93 185c-12 -4 -26 -7 -40 -7c-63 0 -112 50 -112 123c0 78 51 130 125 130s125 -49 125 -127zM226 153c0 47 -26 76 -67 76c-40 0 -67 -29 -67 -76c0 -43 24 -77 67 -77c40 0 67 29 67 77z" />
    <glyph glyph-name="Euro" unicode="&#x20ac;" horiz-adv-x="678" 
d="M608 206c-24 -133 -119 -212 -247 -212c-73 0 -133 26 -177 70c-51 51 -66 98 -70 196h-67v50h66v98h-66v49h67c4 94 20 141 70 191c44 44 104 70 177 70c130 0 223 -79 247 -212h-77c-19 88 -80 144 -170 144c-48 0 -90 -17 -123 -50c-33 -34 -43 -71 -47 -143h219v-49
h-221v-98h221v-50h-219c3 -76 13 -114 47 -148c33 -33 75 -50 123 -50c90 0 152 56 172 144h75z" />
    <glyph glyph-name="uni20B4" unicode="&#x20b4;" horiz-adv-x="625" 
d="M540 457h38v-49h-62c-7 -9 -14 -17 -22 -24c-31 -27 -75 -45 -131 -54c-41 -7 -81 -11 -122 -20h337v-50h-410c-11 -19 -15 -41 -15 -66c0 -83 64 -132 168 -132c80 0 135 19 194 78l52 -52c-67 -67 -137 -94 -244 -94c-148 0 -246 77 -246 202c0 23 3 44 9 64h-39v50h64
c8 10 16 19 26 27c30 26 63 40 130 50l78 12c13 2 25 5 38 9h-336v49h410c11 17 16 38 16 63c0 79 -55 132 -150 132c-75 0 -122 -21 -166 -61l-49 49c61 55 121 78 212 78c141 0 228 -80 228 -201c0 -22 -3 -42 -8 -60z" />
    <glyph glyph-name="afii61352" unicode="&#x2116;" horiz-adv-x="947" 
d="M553 0h-67l-334 574v-574h-71v712h67l334 -573v573h71v-712zM888 269h-269v57h269v-57zM830 541c0 38 -2 80 -23 101c-13 13 -31 21 -52 21c-22 0 -40 -8 -53 -21c-21 -21 -23 -63 -23 -101s2 -80 23 -101c13 -13 32 -21 53 -21s39 8 52 21c21 21 23 63 23 101zM891 540
c0 -55 -7 -105 -41 -139c-22 -23 -55 -37 -95 -37c-41 0 -73 14 -96 37c-34 34 -41 84 -41 139s7 105 41 139c23 23 55 37 96 37c40 0 73 -14 95 -37c34 -34 41 -84 41 -139z" />
    <glyph glyph-name="trademark" unicode="&#x2122;" horiz-adv-x="839" 
d="M781 285h-57v308l-102 -202h-56l-102 202v-308h-58v427h58l130 -259l130 259h57v-427zM331 659h-119v-374h-58v374h-118v53h295v-53z" />
    <glyph glyph-name="Omega" unicode="&#x2126;" 
d="M574 356c0 -103 -2 -172 -28 -222c-12 -25 -28 -45 -55 -67h83v-67h-195v63c40 19 69 40 92 77s27 103 27 214c0 147 -5 200 -50 245c-33 34 -75 51 -123 51s-89 -17 -123 -51c-45 -45 -50 -98 -50 -245c0 -111 4 -177 27 -214s51 -58 92 -77v-63h-195v67h83
c-27 22 -43 42 -56 67c-25 50 -27 119 -27 222c0 163 4 225 71 292c44 44 104 70 178 70s133 -26 177 -70c67 -67 72 -129 72 -292z" />
    <glyph glyph-name="uni2150" unicode="&#x2150;" horiz-adv-x="821" 
d="M207 285h-57v363l-83 -73v66l83 71h57v-427zM607 712l-333 -712h-60l333 712h60zM793 376l-144 -376h-57l144 375h-140v-70h-54v122h251v-51z" />
    <glyph glyph-name="uni2151" unicode="&#x2151;" horiz-adv-x="821" 
d="M207 285h-57v363l-83 -73v66l83 71h57v-427zM607 712l-333 -712h-60l333 712h60zM787 304c0 -32 -8 -54 -30 -100l-100 -204h-61l93 185c-12 -4 -26 -7 -40 -7c-63 0 -112 50 -112 123c0 78 51 130 125 130s125 -49 125 -127zM729 303c0 47 -26 76 -67 76
c-40 0 -67 -29 -67 -76c0 -43 24 -77 67 -77c40 0 67 29 67 77z" />
    <glyph glyph-name="uni2152" unicode="&#x2152;" horiz-adv-x="1139" 
d="M207 285h-57v363l-83 -73v66l83 71h57v-427zM607 712l-333 -712h-60l333 712h60zM710 0h-57v363l-83 -73v66l83 71h57v-427zM1102 118c0 -75 -54 -122 -122 -122s-122 47 -122 122v191c0 75 54 122 122 122s122 -47 122 -122v-191zM1045 119v189c0 42 -24 72 -65 72
c-40 0 -64 -29 -64 -72v-189c0 -43 24 -71 64 -71c41 0 65 29 65 71z" />
    <glyph glyph-name="onethird" unicode="&#x2153;" horiz-adv-x="821" 
d="M207 285h-57v363l-83 -73v66l83 71h57v-427zM607 712l-333 -712h-60l333 712h60zM796 120c0 -81 -58 -124 -129 -124c-69 0 -128 37 -131 119h58c3 -48 36 -67 73 -67c40 0 72 27 72 73c0 44 -25 72 -75 72h-9v51h9c45 0 68 27 68 67c0 44 -31 68 -66 68
c-39 0 -64 -24 -67 -63h-57c4 72 57 115 124 115c73 0 123 -47 123 -119c0 -46 -20 -75 -54 -91c38 -16 61 -48 61 -101z" />
    <glyph glyph-name="twothirds" unicode="&#x2154;" horiz-adv-x="821" 
d="M287 285h-246v52l165 202c16 20 23 36 23 58c0 40 -24 67 -65 67c-34 0 -65 -18 -65 -67h-58c0 72 51 119 123 119s123 -46 123 -119c0 -37 -13 -60 -39 -92l-138 -168h177v-52zM607 712l-333 -712h-60l333 712h60zM796 120c0 -81 -58 -124 -129 -124
c-69 0 -128 37 -131 119h58c3 -48 36 -67 73 -67c40 0 72 27 72 73c0 44 -25 72 -75 72h-9v51h9c45 0 68 27 68 67c0 44 -31 68 -66 68c-39 0 -64 -24 -67 -63h-57c4 72 57 115 124 115c73 0 123 -47 123 -119c0 -46 -20 -75 -54 -91c38 -16 61 -48 61 -101z" />
    <glyph glyph-name="uni2155" unicode="&#x2155;" horiz-adv-x="821" 
d="M207 285h-57v363l-83 -73v66l83 71h57v-427zM607 712l-333 -712h-60l333 712h60zM788 142c0 -45 -5 -83 -35 -113c-20 -20 -50 -33 -89 -33c-41 0 -71 13 -90 32c-22 22 -30 48 -32 80h57c5 -39 24 -60 65 -60c18 0 35 5 47 17c18 19 20 48 20 77c0 50 -13 93 -64 93
c-34 0 -56 -16 -63 -40h-53v232h227v-52h-174v-117c15 16 39 25 71 25c33 0 59 -9 76 -27c32 -32 37 -74 37 -114z" />
    <glyph glyph-name="uni2156" unicode="&#x2156;" horiz-adv-x="821" 
d="M287 285h-246v52l165 202c16 20 23 36 23 58c0 40 -24 67 -65 67c-34 0 -65 -18 -65 -67h-58c0 72 51 119 123 119s123 -46 123 -119c0 -37 -13 -60 -39 -92l-138 -168h177v-52zM607 712l-333 -712h-60l333 712h60zM788 142c0 -45 -5 -83 -35 -113
c-20 -20 -50 -33 -89 -33c-41 0 -71 13 -90 32c-22 22 -30 48 -32 80h57c5 -39 24 -60 65 -60c18 0 35 5 47 17c18 19 20 48 20 77c0 50 -13 93 -64 93c-34 0 -56 -16 -63 -40h-53v232h227v-52h-174v-117c15 16 39 25 71 25c33 0 59 -9 76 -27c32 -32 37 -74 37 -114z" />
    <glyph glyph-name="uni2157" unicode="&#x2157;" horiz-adv-x="821" 
d="M293 405c0 -81 -58 -124 -129 -124c-69 0 -128 37 -131 119h58c3 -48 36 -67 73 -67c40 0 72 27 72 73c0 44 -25 72 -75 72h-9v51h9c45 0 68 27 68 67c0 44 -31 68 -66 68c-39 0 -64 -24 -67 -63h-57c4 72 57 115 124 115c73 0 123 -47 123 -119c0 -46 -20 -75 -54 -91
c38 -16 61 -48 61 -101zM607 712l-333 -712h-60l333 712h60zM788 142c0 -45 -5 -83 -35 -113c-20 -20 -50 -33 -89 -33c-41 0 -71 13 -90 32c-22 22 -30 48 -32 80h57c5 -39 24 -60 65 -60c18 0 35 5 47 17c18 19 20 48 20 77c0 50 -13 93 -64 93c-34 0 -56 -16 -63 -40h-53
v232h227v-52h-174v-117c15 16 39 25 71 25c33 0 59 -9 76 -27c32 -32 37 -74 37 -114z" />
    <glyph glyph-name="uni2158" unicode="&#x2158;" horiz-adv-x="821" 
d="M298 350h-47v-65h-57v65h-172v52l151 310h62l-151 -310h110v105h57v-105h47v-52zM607 712l-333 -712h-60l333 712h60zM788 142c0 -45 -5 -83 -35 -113c-20 -20 -50 -33 -89 -33c-41 0 -71 13 -90 32c-22 22 -30 48 -32 80h57c5 -39 24 -60 65 -60c18 0 35 5 47 17
c18 19 20 48 20 77c0 50 -13 93 -64 93c-34 0 -56 -16 -63 -40h-53v232h227v-52h-174v-117c15 16 39 25 71 25c33 0 59 -9 76 -27c32 -32 37 -74 37 -114z" />
    <glyph glyph-name="uni2159" unicode="&#x2159;" horiz-adv-x="821" 
d="M207 285h-57v363l-83 -73v66l83 71h57v-427zM607 712l-333 -712h-60l333 712h60zM787 126c0 -78 -50 -130 -124 -130s-125 49 -125 127c0 30 7 57 29 101l100 203h61l-92 -185c12 5 25 7 39 7c63 0 112 -50 112 -123zM729 124c0 44 -24 77 -67 77c-40 0 -67 -29 -67 -77
c0 -47 27 -76 67 -76s67 29 67 76z" />
    <glyph glyph-name="uni215A" unicode="&#x215a;" horiz-adv-x="821" 
d="M285 427c0 -45 -5 -83 -35 -113c-20 -20 -50 -33 -89 -33c-41 0 -71 13 -90 32c-22 22 -30 48 -32 80h57c5 -39 24 -60 65 -60c18 0 35 5 47 17c18 19 20 48 20 77c0 50 -13 93 -64 93c-34 0 -56 -16 -63 -40h-53v232h227v-52h-174v-117c15 16 39 25 71 25
c33 0 59 -9 76 -27c32 -32 37 -74 37 -114zM607 712l-333 -712h-60l333 712h60zM787 126c0 -78 -50 -130 -124 -130s-125 49 -125 127c0 30 7 57 29 101l100 203h61l-92 -185c12 5 25 7 39 7c63 0 112 -50 112 -123zM729 124c0 44 -24 77 -67 77c-40 0 -67 -29 -67 -77
c0 -47 27 -76 67 -76s67 29 67 76z" />
    <glyph glyph-name="oneeighth" unicode="&#x215b;" horiz-adv-x="821" 
d="M207 285h-57v363l-83 -73v66l83 71h57v-427zM607 712l-333 -712h-60l333 712h60zM793 120c0 -76 -58 -124 -131 -124c-72 0 -130 48 -130 124c0 49 27 82 60 101c-30 19 -53 48 -53 92c0 70 54 118 123 118c70 0 124 -48 124 -118c0 -44 -22 -73 -53 -92
c32 -19 60 -52 60 -101zM735 121c0 42 -31 74 -73 74c-41 0 -72 -32 -72 -74s31 -73 72 -73c42 0 73 31 73 73zM728 312c0 39 -26 67 -66 67c-39 0 -65 -28 -65 -67c0 -38 27 -67 65 -67c39 0 66 29 66 67z" />
    <glyph glyph-name="threeeighths" unicode="&#x215c;" horiz-adv-x="821" 
d="M293 405c0 -81 -58 -124 -129 -124c-69 0 -128 37 -131 119h58c3 -48 36 -67 73 -67c40 0 72 27 72 73c0 44 -25 72 -75 72h-9v51h9c45 0 68 27 68 67c0 44 -31 68 -66 68c-39 0 -64 -24 -67 -63h-57c4 72 57 115 124 115c73 0 123 -47 123 -119c0 -46 -20 -75 -54 -91
c38 -16 61 -48 61 -101zM607 712l-333 -712h-60l333 712h60zM793 120c0 -76 -58 -124 -131 -124c-72 0 -130 48 -130 124c0 49 27 82 60 101c-30 19 -53 48 -53 92c0 70 54 118 123 118c70 0 124 -48 124 -118c0 -44 -22 -73 -53 -92c32 -19 60 -52 60 -101zM735 121
c0 42 -31 74 -73 74c-41 0 -72 -32 -72 -74s31 -73 72 -73c42 0 73 31 73 73zM728 312c0 39 -26 67 -66 67c-39 0 -65 -28 -65 -67c0 -38 27 -67 65 -67c39 0 66 29 66 67z" />
    <glyph glyph-name="fiveeighths" unicode="&#x215d;" horiz-adv-x="821" 
d="M285 427c0 -45 -5 -83 -35 -113c-20 -20 -50 -33 -89 -33c-41 0 -71 13 -90 32c-22 22 -30 48 -32 80h57c5 -39 24 -60 65 -60c18 0 35 5 47 17c18 19 20 48 20 77c0 50 -13 93 -64 93c-34 0 -56 -16 -63 -40h-53v232h227v-52h-174v-117c15 16 39 25 71 25
c33 0 59 -9 76 -27c32 -32 37 -74 37 -114zM607 712l-333 -712h-60l333 712h60zM793 120c0 -76 -58 -124 -131 -124c-72 0 -130 48 -130 124c0 49 27 82 60 101c-30 19 -53 48 -53 92c0 70 54 118 123 118c70 0 124 -48 124 -118c0 -44 -22 -73 -53 -92
c32 -19 60 -52 60 -101zM735 121c0 42 -31 74 -73 74c-41 0 -72 -32 -72 -74s31 -73 72 -73c42 0 73 31 73 73zM728 312c0 39 -26 67 -66 67c-39 0 -65 -28 -65 -67c0 -38 27 -67 65 -67c39 0 66 29 66 67z" />
    <glyph glyph-name="seveneighths" unicode="&#x215e;" horiz-adv-x="821" 
d="M290 661l-144 -376h-57l144 375h-140v-70h-54v122h251v-51zM607 712l-333 -712h-60l333 712h60zM793 120c0 -76 -58 -124 -131 -124c-72 0 -130 48 -130 124c0 49 27 82 60 101c-30 19 -53 48 -53 92c0 70 54 118 123 118c70 0 124 -48 124 -118c0 -44 -22 -73 -53 -92
c32 -19 60 -52 60 -101zM735 121c0 42 -31 74 -73 74c-41 0 -72 -32 -72 -74s31 -73 72 -73c42 0 73 31 73 73zM728 312c0 39 -26 67 -66 67c-39 0 -65 -28 -65 -67c0 -38 27 -67 65 -67c39 0 66 29 66 67z" />
    <glyph glyph-name="uni215F" unicode="&#x215f;" horiz-adv-x="503" 
d="M207 285h-57v363l-83 -73v66l83 71h57v-427zM607 712l-333 -712h-60l333 712h60z" />
    <glyph glyph-name="uni2189" unicode="&#x2189;" horiz-adv-x="821" 
d="M281 403c0 -75 -54 -122 -122 -122s-122 47 -122 122v191c0 75 54 122 122 122s122 -47 122 -122v-191zM224 404v189c0 42 -24 72 -65 72c-40 0 -64 -29 -64 -72v-189c0 -43 24 -71 64 -71c41 0 65 29 65 71zM607 712l-333 -712h-60l333 712h60zM796 120
c0 -81 -58 -124 -129 -124c-69 0 -128 37 -131 119h58c3 -48 36 -67 73 -67c40 0 72 27 72 73c0 44 -25 72 -75 72h-9v51h9c45 0 68 27 68 67c0 44 -31 68 -66 68c-39 0 -64 -24 -67 -63h-57c4 72 57 115 124 115c73 0 123 -47 123 -119c0 -46 -20 -75 -54 -91
c38 -16 61 -48 61 -101z" />
    <glyph glyph-name="arrowleft" unicode="&#x2190;" horiz-adv-x="1027" 
d="M455 -130l-399 399l399 399h94l-365 -364h789v-70h-789l365 -364h-94z" />
    <glyph glyph-name="arrowup" unicode="&#x2191;" horiz-adv-x="1027" 
d="M115 328l399 399l399 -399v-94l-364 365v-789h-70v789l-364 -365v94z" />
    <glyph glyph-name="arrowright" unicode="&#x2192;" horiz-adv-x="1027" 
d="M480 -130l365 364h-789v70h789l-365 364h94l399 -399l-399 -399h-94z" />
    <glyph glyph-name="arrowdown" unicode="&#x2193;" horiz-adv-x="1027" 
d="M913 208l-399 -399l-399 399v94l364 -365v789h70v-789l364 365v-94z" />
    <glyph glyph-name="uni2196" unicode="&#x2196;" horiz-adv-x="1027" 
d="M189 28v565h565l66 -66h-515l558 -558l-50 -50l-557 558v-515z" />
    <glyph glyph-name="uni2197" unicode="&#x2197;" horiz-adv-x="1027" 
d="M298 593h565v-565l-66 -66v515l-558 -558l-50 50l558 557h-515z" />
    <glyph glyph-name="uni2198" unicode="&#x2198;" horiz-adv-x="1027" 
d="M842 -67h-564l-66 66l515 -1l-558 558l50 50l558 -558l-1 517l66 -68v-564z" />
    <glyph glyph-name="uni2199" unicode="&#x2199;" horiz-adv-x="1027" 
d="M858 556l-558 -558l515 1l-66 -66h-564v564l66 68l-1 -517l558 558z" />
    <glyph glyph-name="partialdiff" unicode="&#x2202;" horiz-adv-x="544" 
d="M453 244c0 -75 -9 -145 -57 -195c-32 -34 -78 -55 -136 -55s-105 21 -137 55c-48 50 -57 120 -57 195c0 81 9 149 57 198c27 28 72 53 130 53c48 0 90 -11 128 -58v70c0 79 -39 149 -135 149c-57 0 -82 -18 -118 -50l-46 46c52 47 92 66 166 66c134 0 205 -88 205 -216
v-258zM381 244c0 55 -3 115 -37 151c-22 23 -51 36 -84 36s-63 -13 -85 -36c-34 -36 -37 -96 -37 -151s3 -114 37 -150c22 -23 52 -36 85 -36s62 13 84 36c34 36 37 95 37 150z" />
    <glyph glyph-name="Delta" unicode="&#x2206;" horiz-adv-x="603" 
d="M594 0h-586l262 712h63zM495 66l-193 537l-194 -537h387z" />
    <glyph glyph-name="product" unicode="&#x220f;" horiz-adv-x="696" 
d="M593 -220h-76v912h-338v-912h-76v980h490v-980z" />
    <glyph glyph-name="summation" unicode="&#x2211;" horiz-adv-x="551" 
d="M500 -220h-443v65l202 438l-201 413v64h441v-68h-353l180 -375v-69l-182 -400h356v-68z" />
    <glyph glyph-name="minus" unicode="&#x2212;" horiz-adv-x="522" 
d="M470 236h-418v67h418v-67z" />
    <glyph glyph-name="uni2219" unicode="&#x2219;" horiz-adv-x="522" 
d="M424 334c0 -90 -73 -163 -163 -163s-163 73 -163 163s73 163 163 163s163 -73 163 -163z" />
    <glyph glyph-name="radical" unicode="&#x221a;" horiz-adv-x="562" 
d="M532 644h-89l-211 -644h-61l-163 492h79l115 -356l184 576h146v-68z" />
    <glyph glyph-name="infinity" unicode="&#x221e;" horiz-adv-x="808" 
d="M740 267c0 -90 -62 -159 -158 -159c-70 0 -119 32 -178 104c-59 -72 -109 -105 -177 -105c-96 0 -160 70 -160 160s64 160 160 160c66 0 118 -34 177 -106c59 72 108 106 178 106c96 0 158 -70 158 -160zM358 266c-46 56 -80 94 -129 94c-54 0 -93 -38 -93 -94
s39 -93 93 -93c49 0 83 37 129 93zM671 266c0 56 -38 93 -92 93c-49 0 -84 -37 -130 -93c46 -56 81 -93 130 -93c54 0 92 37 92 93z" />
    <glyph glyph-name="integral" unicode="&#x222b;" horiz-adv-x="372" 
d="M334 653h-38c-49 0 -73 -28 -73 -77v-654c0 -85 -50 -140 -136 -140h-50v62h39c49 0 73 28 73 77v654c0 85 50 140 136 140h49v-62z" />
    <glyph glyph-name="approxequal" unicode="&#x2248;" horiz-adv-x="539" 
d="M490 189c-56 -56 -84 -68 -129 -68c-35 0 -68 14 -106 31c-39 18 -54 24 -77 24c-28 0 -45 -6 -84 -45l-45 45c56 56 84 68 129 68c30 0 57 -9 106 -31c50 -23 59 -24 77 -24c28 0 45 6 84 45zM490 366c-56 -56 -84 -68 -129 -68c-35 0 -68 15 -106 32
c-28 13 -51 23 -78 23c-28 0 -45 -5 -84 -44l-44 44c56 56 84 69 129 69c30 0 57 -10 105 -32c28 -13 51 -23 78 -23c28 0 45 5 84 44z" />
    <glyph glyph-name="notequal" unicode="&#x2260;" horiz-adv-x="537" 
d="M485 151h-284l-103 -111l-46 40l67 71h-67v66h126l99 103h-225v67h284l104 111l45 -41l-67 -70h67v-67h-126l-98 -103h224v-66z" />
    <glyph glyph-name="lessequal" unicode="&#x2264;" horiz-adv-x="522" 
d="M426 134l-331 168v65l331 168v-77l-250 -124l250 -123v-77zM426 -16l-331 168v77l331 -168v-77z" />
    <glyph glyph-name="greaterequal" unicode="&#x2265;" horiz-adv-x="522" 
d="M426 302l-331 -168v77l250 123l-250 124v77l331 -168v-65zM426 152l-331 -168v77l331 168v-77z" />
    <glyph glyph-name="dotmath" unicode="&#x22c5;" horiz-adv-x="522" 
d="M308 223h-94v94h94v-94z" />
    <glyph glyph-name="lozenge" unicode="&#x25ca;" horiz-adv-x="649" 
d="M582 352l-257 -364l-258 364l258 364zM501 352l-176 253l-177 -253l177 -255z" />
    <glyph glyph-name="fi" unicode="&#xfb01;" horiz-adv-x="562" 
d="M283 437h-105v-437h-72v437h-63v55h63v90c0 73 41 132 125 132h52v-62h-39c-46 0 -66 -27 -66 -72v-88h105v-55zM472 0h-72v492h72v-492zM477 632h-81v81h81v-81z" />
    <glyph glyph-name="fl" unicode="&#xfb02;" horiz-adv-x="602" 
d="M283 437h-105v-437h-72v437h-63v55h63v90c0 73 41 132 125 132h52v-62h-39c-46 0 -66 -27 -66 -72v-88h105v-55zM573 0h-52c-86 0 -125 56 -125 131v581h72v-578c0 -48 16 -72 66 -72h39v-62z" />
    <glyph glyph-name="i.latn_TRK" horiz-adv-x="252" 
d="M162 0h-72v492h72v-492zM167 632h-81v81h81v-81z" />
    <glyph glyph-name="Ldot.latn_CAT" horiz-adv-x="573" 
d="M543 0h-440v712h76v-644h364v-68zM389 320v76h75v-76h-75z" />
    <glyph glyph-name="ldot.latn_CAT" horiz-adv-x="294" 
d="M265 0h-52c-86 0 -125 56 -125 131v581h72v-578c0 -48 16 -72 66 -72h39v-62zM233 231v77h75v-77h-75z" />
    <glyph glyph-name="zero.numr" horiz-adv-x="318" 
d="M281 403c0 -75 -54 -122 -122 -122s-122 47 -122 122v191c0 75 54 122 122 122s122 -47 122 -122v-191zM224 404v189c0 42 -24 72 -65 72c-40 0 -64 -29 -64 -72v-189c0 -43 24 -71 64 -71c41 0 65 29 65 71z" />
    <glyph glyph-name="one.numr" horiz-adv-x="318" 
d="M207 285h-57v363l-83 -73v66l83 71h57v-427z" />
    <glyph glyph-name="two.numr" horiz-adv-x="318" 
d="M287 285h-246v52l165 202c16 20 23 36 23 58c0 40 -24 67 -65 67c-34 0 -65 -18 -65 -67h-58c0 72 51 119 123 119s123 -46 123 -119c0 -37 -13 -60 -39 -92l-138 -168h177v-52z" />
    <glyph glyph-name="three.numr" horiz-adv-x="318" 
d="M293 405c0 -81 -58 -124 -129 -124c-69 0 -128 37 -131 119h58c3 -48 36 -67 73 -67c40 0 72 27 72 73c0 44 -25 72 -75 72h-9v51h9c45 0 68 27 68 67c0 44 -31 68 -66 68c-39 0 -64 -24 -67 -63h-57c4 72 57 115 124 115c73 0 123 -47 123 -119c0 -46 -20 -75 -54 -91
c38 -16 61 -48 61 -101z" />
    <glyph glyph-name="four.numr" horiz-adv-x="318" 
d="M298 350h-47v-65h-57v65h-172v52l151 310h62l-151 -310h110v105h57v-105h47v-52z" />
    <glyph glyph-name="five.numr" horiz-adv-x="318" 
d="M285 427c0 -45 -5 -83 -35 -113c-20 -20 -50 -33 -89 -33c-41 0 -71 13 -90 32c-22 22 -30 48 -32 80h57c5 -39 24 -60 65 -60c18 0 35 5 47 17c18 19 20 48 20 77c0 50 -13 93 -64 93c-34 0 -56 -16 -63 -40h-53v232h227v-52h-174v-117c15 16 39 25 71 25
c33 0 59 -9 76 -27c32 -32 37 -74 37 -114z" />
    <glyph glyph-name="six.numr" horiz-adv-x="318" 
d="M284 411c0 -78 -50 -130 -124 -130s-125 49 -125 127c0 30 7 57 29 101l100 203h61l-92 -185c12 5 25 7 39 7c63 0 112 -50 112 -123zM226 409c0 44 -24 77 -67 77c-40 0 -67 -29 -67 -77c0 -47 27 -76 67 -76s67 29 67 76z" />
    <glyph glyph-name="seven.numr" horiz-adv-x="318" 
d="M290 661l-144 -376h-57l144 375h-140v-70h-54v122h251v-51z" />
    <glyph glyph-name="eight.numr" horiz-adv-x="318" 
d="M290 405c0 -76 -58 -124 -131 -124c-72 0 -130 48 -130 124c0 49 27 82 60 101c-30 19 -53 48 -53 92c0 70 54 118 123 118c70 0 124 -48 124 -118c0 -44 -22 -73 -53 -92c32 -19 60 -52 60 -101zM232 406c0 42 -31 74 -73 74c-41 0 -72 -32 -72 -74s31 -73 72 -73
c42 0 73 31 73 73zM225 597c0 39 -26 67 -66 67c-39 0 -65 -28 -65 -67c0 -38 27 -67 65 -67c39 0 66 29 66 67z" />
    <glyph glyph-name="nine.numr" horiz-adv-x="318" 
d="M284 589c0 -32 -8 -54 -30 -100l-100 -204h-61l93 185c-12 -4 -26 -7 -40 -7c-63 0 -112 50 -112 123c0 78 51 130 125 130s125 -49 125 -127zM226 588c0 47 -26 76 -67 76c-40 0 -67 -29 -67 -76c0 -43 24 -77 67 -77c40 0 67 29 67 77z" />
    <glyph glyph-name="zero.dnom" horiz-adv-x="318" 
d="M281 118c0 -75 -54 -122 -122 -122s-122 47 -122 122v191c0 75 54 122 122 122s122 -47 122 -122v-191zM224 119v189c0 42 -24 72 -65 72c-40 0 -64 -29 -64 -72v-189c0 -43 24 -71 64 -71c41 0 65 29 65 71z" />
    <glyph glyph-name="one.dnom" horiz-adv-x="318" 
d="M207 0h-57v363l-83 -73v66l83 71h57v-427z" />
    <glyph glyph-name="two.dnom" horiz-adv-x="318" 
d="M287 0h-246v52l165 202c16 20 23 36 23 58c0 40 -24 67 -65 67c-34 0 -65 -18 -65 -67h-58c0 72 51 119 123 119s123 -46 123 -119c0 -37 -13 -60 -39 -92l-138 -168h177v-52z" />
    <glyph glyph-name="three.dnom" horiz-adv-x="318" 
d="M293 120c0 -81 -58 -124 -129 -124c-69 0 -128 37 -131 119h58c3 -48 36 -67 73 -67c40 0 72 27 72 73c0 44 -25 72 -75 72h-9v51h9c45 0 68 27 68 67c0 44 -31 68 -66 68c-39 0 -64 -24 -67 -63h-57c4 72 57 115 124 115c73 0 123 -47 123 -119c0 -46 -20 -75 -54 -91
c38 -16 61 -48 61 -101z" />
    <glyph glyph-name="four.dnom" horiz-adv-x="318" 
d="M298 65h-47v-65h-57v65h-172v52l151 310h62l-151 -310h110v105h57v-105h47v-52z" />
    <glyph glyph-name="five.dnom" horiz-adv-x="318" 
d="M285 142c0 -45 -5 -83 -35 -113c-20 -20 -50 -33 -89 -33c-41 0 -71 13 -90 32c-22 22 -30 48 -32 80h57c5 -39 24 -60 65 -60c18 0 35 5 47 17c18 19 20 48 20 77c0 50 -13 93 -64 93c-34 0 -56 -16 -63 -40h-53v232h227v-52h-174v-117c15 16 39 25 71 25
c33 0 59 -9 76 -27c32 -32 37 -74 37 -114z" />
    <glyph glyph-name="six.dnom" horiz-adv-x="318" 
d="M284 126c0 -78 -50 -130 -124 -130s-125 49 -125 127c0 30 7 57 29 101l100 203h61l-92 -185c12 5 25 7 39 7c63 0 112 -50 112 -123zM226 124c0 44 -24 77 -67 77c-40 0 -67 -29 -67 -77c0 -47 27 -76 67 -76s67 29 67 76z" />
    <glyph glyph-name="seven.dnom" horiz-adv-x="318" 
d="M290 376l-144 -376h-57l144 375h-140v-70h-54v122h251v-51z" />
    <glyph glyph-name="eight.dnom" horiz-adv-x="318" 
d="M290 120c0 -76 -58 -124 -131 -124c-72 0 -130 48 -130 124c0 49 27 82 60 101c-30 19 -53 48 -53 92c0 70 54 118 123 118c70 0 124 -48 124 -118c0 -44 -22 -73 -53 -92c32 -19 60 -52 60 -101zM232 121c0 42 -31 74 -73 74c-41 0 -72 -32 -72 -74s31 -73 72 -73
c42 0 73 31 73 73zM225 312c0 39 -26 67 -66 67c-39 0 -65 -28 -65 -67c0 -38 27 -67 65 -67c39 0 66 29 66 67z" />
    <glyph glyph-name="nine.dnom" horiz-adv-x="318" 
d="M284 304c0 -32 -8 -54 -30 -100l-100 -204h-61l93 185c-12 -4 -26 -7 -40 -7c-63 0 -112 50 -112 123c0 78 51 130 125 130s125 -49 125 -127zM226 303c0 47 -26 76 -67 76c-40 0 -67 -29 -67 -76c0 -43 24 -77 67 -77c40 0 67 29 67 77z" />
    <glyph glyph-name="space.frac" horiz-adv-x="49" 
 />
    <glyph glyph-name="zero.osf" horiz-adv-x="522" 
d="M456 190c0 -118 -84 -196 -195 -196s-195 78 -195 196v217c0 118 84 196 195 196s195 -78 195 -196v-217zM384 194v209c0 78 -44 136 -123 136s-123 -58 -123 -136v-209c0 -78 44 -136 123 -136s123 58 123 136z" />
    <glyph glyph-name="one.osf" horiz-adv-x="373" 
d="M256 0h-72v517l-133 -117v82l133 115h72v-597z" />
    <glyph glyph-name="two.osf" horiz-adv-x="506" 
d="M450 0h-409v64l251 242c42 41 68 85 68 134c0 67 -50 119 -122 119c-67 0 -123 -47 -123 -121h-72c0 107 83 185 195 185c117 0 194 -80 194 -182c0 -72 -39 -125 -92 -177l-204 -200h314v-64z" />
    <glyph glyph-name="three.osf" horiz-adv-x="515" 
d="M456 78c0 -131 -93 -201 -209 -201c-112 0 -203 59 -209 188h72c6 -89 69 -123 137 -123c77 0 137 50 137 137c0 86 -43 138 -140 138h-14v63h14c87 0 127 49 127 129c0 85 -55 130 -124 130c-75 0 -121 -45 -128 -118h-72c8 115 92 182 200 182c116 0 196 -77 196 -193
c0 -75 -32 -129 -96 -158c72 -27 109 -85 109 -174z" />
    <glyph glyph-name="four.osf" horiz-adv-x="541" 
d="M501 30h-91v-153h-71v153h-303v66l264 533h77l-265 -533h227v205h71v-205h91v-66z" />
    <glyph glyph-name="five.osf" horiz-adv-x="517" 
d="M453 120c0 -71 -6 -138 -57 -189c-33 -33 -79 -53 -142 -53c-62 0 -112 20 -143 51c-31 32 -46 73 -50 124h72c9 -71 46 -111 121 -111c35 0 67 12 88 33c37 37 39 94 39 145c0 87 -17 173 -120 173c-62 0 -104 -28 -118 -70h-65v374h360v-64h-295v-226
c28 31 72 49 128 49c53 0 95 -17 123 -45c52 -52 59 -124 59 -191z" />
    <glyph glyph-name="six.osf" horiz-adv-x="527" 
d="M476 220c0 -130 -82 -226 -212 -226c-131 0 -213 88 -213 220c0 58 16 116 52 179l190 335h76l-180 -309c29 15 53 19 87 19c121 0 200 -91 200 -218zM404 216c0 88 -49 162 -141 162c-85 0 -140 -64 -140 -162c0 -97 55 -161 140 -161s141 64 141 161z" />
    <glyph glyph-name="seven.osf" horiz-adv-x="502" 
d="M467 533l-291 -656h-76l290 656h-274v-112h-71v176h422v-64z" />
    <glyph glyph-name="eight.osf" horiz-adv-x="538" 
d="M479 196c0 -120 -92 -202 -210 -202s-210 82 -210 202c0 83 47 139 107 173c-56 32 -94 84 -94 158c0 111 84 191 197 191s197 -80 197 -191c0 -74 -38 -126 -94 -158c60 -34 107 -90 107 -173zM407 197c0 79 -60 139 -138 139s-138 -60 -138 -139s60 -139 138 -139
s138 60 138 139zM394 526c0 74 -52 128 -125 128s-125 -54 -125 -128c0 -75 52 -127 125 -127s125 52 125 127z" />
    <glyph glyph-name="nine.osf" horiz-adv-x="527" 
d="M476 383c0 -58 -16 -116 -52 -179l-190 -335h-76l180 309c-29 -15 -53 -19 -87 -19c-121 0 -200 91 -200 218c0 130 82 226 212 226c131 0 213 -88 213 -220zM404 381c0 97 -55 161 -140 161s-141 -64 -141 -161c0 -88 49 -162 141 -162c85 0 140 64 140 162z" />
    <glyph glyph-name="zero.lf" horiz-adv-x="522" 
d="M456 190c0 -118 -84 -196 -195 -196s-195 78 -195 196v332c0 118 84 196 195 196s195 -78 195 -196v-332zM384 194v324c0 78 -44 136 -123 136s-123 -58 -123 -136v-324c0 -78 44 -136 123 -136s123 58 123 136z" />
    <glyph glyph-name="one.lf" horiz-adv-x="372" 
d="M256 0h-72v632l-133 -117v82l133 115h72v-712z" />
    <glyph glyph-name="two.lf" horiz-adv-x="488" 
d="M434 0h-393v64l281 357c27 35 40 66 40 105c0 77 -46 128 -124 128c-66 0 -124 -37 -124 -129h-72c0 112 77 193 196 193c117 0 196 -75 196 -192c0 -57 -18 -94 -57 -144l-249 -318h306v-64z" />
    <glyph glyph-name="three.lf" horiz-adv-x="512" 
d="M456 194c0 -131 -93 -201 -209 -201c-112 0 -203 59 -209 188h72c6 -89 69 -124 137 -124c77 0 137 51 137 138c0 86 -43 138 -140 138h-15v63h15c87 0 127 49 127 129c0 85 -55 130 -124 130c-75 0 -121 -46 -128 -119h-72c8 115 92 183 200 183c116 0 196 -77 196 -193
c0 -75 -32 -129 -96 -158c72 -27 109 -85 109 -174z" />
    <glyph glyph-name="four.lf" horiz-adv-x="518" 
d="M478 113h-87v-113h-71v113h-284v65l257 534h77l-257 -534h207v202h71v-202h87v-65z" />
    <glyph glyph-name="five.lf" horiz-adv-x="517" 
d="M453 235c0 -71 -6 -138 -57 -189c-33 -33 -79 -53 -142 -53c-62 0 -112 20 -143 51c-31 32 -46 73 -50 124h72c9 -71 46 -111 121 -111c35 0 67 12 88 33c37 37 39 94 39 145c0 87 -17 173 -120 173c-62 0 -104 -28 -118 -70h-65v374h360v-64h-295v-226
c28 31 72 49 128 49c53 0 95 -17 123 -45c52 -52 59 -124 59 -191z" />
    <glyph glyph-name="six.lf" horiz-adv-x="489" 
d="M442 205c0 -121 -76 -211 -197 -211s-198 82 -198 205c0 51 15 100 45 160l175 353h74l-159 -320c22 10 47 15 75 15c111 0 185 -85 185 -202zM370 202c0 79 -44 144 -126 144c-76 0 -125 -56 -125 -144c0 -87 49 -144 125 -144s126 57 126 144z" />
    <glyph glyph-name="seven.lf" horiz-adv-x="471" 
d="M436 648l-247 -648h-76l247 648h-248v-112h-71v176h395v-64z" />
    <glyph glyph-name="eight.lf" horiz-adv-x="538" 
d="M479 196c0 -120 -92 -202 -210 -202s-210 82 -210 202c0 83 47 139 107 173c-56 32 -93 84 -93 158c0 111 83 191 196 191s196 -80 196 -191c0 -74 -36 -126 -92 -158c60 -34 106 -90 106 -173zM407 197c0 79 -60 139 -138 139s-138 -60 -138 -139s60 -139 138 -139
s138 60 138 139zM393 526c0 74 -51 128 -124 128s-124 -54 -124 -128c0 -75 51 -127 124 -127s124 52 124 127z" />
    <glyph glyph-name="nine.lf" horiz-adv-x="489" 
d="M442 513c0 -51 -15 -100 -45 -160l-175 -353h-75l160 320c-22 -10 -48 -15 -76 -15c-111 0 -184 85 -184 202c0 121 76 211 197 211s198 -82 198 -205zM370 510c0 87 -50 144 -126 144s-125 -57 -125 -144c0 -79 43 -144 125 -144c76 0 126 56 126 144z" />
    <glyph glyph-name="zero.tosf" horiz-adv-x="522" 
d="M456 190c0 -118 -84 -196 -195 -196s-195 78 -195 196v217c0 118 84 196 195 196s195 -78 195 -196v-217zM384 194v209c0 78 -44 136 -123 136s-123 -58 -123 -136v-209c0 -78 44 -136 123 -136s123 58 123 136z" />
    <glyph glyph-name="one.tosf" horiz-adv-x="522" 
d="M330 0h-72v517l-133 -117v82l133 115h72v-597z" />
    <glyph glyph-name="two.tosf" horiz-adv-x="522" 
d="M468 0h-409v64l251 242c42 41 68 85 68 134c0 67 -50 119 -122 119c-67 0 -123 -47 -123 -121h-72c0 107 83 185 195 185c117 0 194 -80 194 -182c0 -72 -39 -125 -92 -177l-204 -200h314v-64z" />
    <glyph glyph-name="three.tosf" horiz-adv-x="522" 
d="M460 78c0 -131 -93 -201 -209 -201c-112 0 -203 59 -209 188h72c6 -89 69 -123 137 -123c77 0 137 50 137 137c0 86 -43 138 -140 138h-14v63h14c87 0 127 49 127 129c0 85 -55 130 -124 130c-75 0 -121 -45 -128 -118h-72c8 115 92 182 200 182c116 0 196 -77 196 -193
c0 -75 -32 -129 -96 -158c72 -27 109 -85 109 -174z" />
    <glyph glyph-name="four.tosf" horiz-adv-x="522" 
d="M495 30h-91v-153h-71v153h-303v66l264 533h77l-265 -533h227v205h71v-205h91v-66z" />
    <glyph glyph-name="five.tosf" horiz-adv-x="522" 
d="M457 120c0 -71 -6 -138 -57 -189c-33 -33 -79 -53 -142 -53c-62 0 -112 20 -143 51c-31 32 -46 73 -50 124h72c9 -71 46 -111 121 -111c35 0 67 12 88 33c37 37 39 94 39 145c0 87 -17 173 -120 173c-62 0 -104 -28 -118 -70h-65v374h360v-64h-295v-226
c28 31 72 49 128 49c53 0 95 -17 123 -45c52 -52 59 -124 59 -191z" />
    <glyph glyph-name="six.tosf" horiz-adv-x="522" 
d="M475 220c0 -130 -82 -226 -212 -226c-131 0 -213 88 -213 220c0 58 16 116 52 179l190 335h76l-180 -309c29 15 53 19 87 19c121 0 200 -91 200 -218zM403 216c0 88 -49 162 -141 162c-85 0 -140 -64 -140 -162c0 -97 55 -161 140 -161s141 64 141 161z" />
    <glyph glyph-name="seven.tosf" horiz-adv-x="522" 
d="M482 533l-291 -656h-76l290 656h-274v-112h-71v176h422v-64z" />
    <glyph glyph-name="eight.tosf" horiz-adv-x="522" 
d="M471 196c0 -120 -92 -202 -210 -202s-210 82 -210 202c0 83 47 139 107 173c-56 32 -94 84 -94 158c0 111 84 191 197 191s197 -80 197 -191c0 -74 -38 -126 -94 -158c60 -34 107 -90 107 -173zM399 197c0 79 -60 139 -138 139s-138 -60 -138 -139s60 -139 138 -139
s138 60 138 139zM386 526c0 74 -52 128 -125 128s-125 -54 -125 -128c0 -75 52 -127 125 -127s125 52 125 127z" />
    <glyph glyph-name="nine.tosf" horiz-adv-x="522" 
d="M472 383c0 -58 -16 -116 -52 -179l-190 -335h-76l180 309c-29 -15 -53 -19 -87 -19c-121 0 -200 91 -200 218c0 130 82 226 212 226c131 0 213 -88 213 -220zM400 381c0 97 -55 161 -140 161s-141 -64 -141 -161c0 -88 49 -162 141 -162c85 0 140 64 140 162z" />
    <glyph glyph-name="uni2007.tosf" horiz-adv-x="522" 
 />
    <glyph glyph-name="hyphen.case" horiz-adv-x="426" 
d="M350 322h-274v67h274v-67z" />
    <glyph glyph-name="exclamdown.case" horiz-adv-x="316" 
d="M184 0h-83l10 512h62zM185 628h-86v84h86v-84z" />
    <glyph glyph-name="guillemotleft.case" horiz-adv-x="554" 
d="M250 146l-210 210l210 210v-90l-120 -120l120 -121v-89zM476 146l-210 210l210 210v-90l-121 -120l121 -121v-89z" />
    <glyph glyph-name="uni00AD.case" horiz-adv-x="426" 
d="M350 322h-274v67h274v-67z" />
    <glyph glyph-name="guillemotright.case" horiz-adv-x="554" 
d="M514 356l-210 -210v89l120 121l-120 120v90zM288 356l-210 -210v89l121 121l-121 120v90z" />
    <glyph glyph-name="questiondown.case" horiz-adv-x="497" 
d="M421 177c0 -102 -79 -183 -187 -183c-105 0 -188 76 -188 183c0 47 20 82 46 120l82 118c12 18 18 42 18 58v40h72v-41c0 -39 -11 -64 -32 -94l-81 -116c-19 -28 -33 -51 -33 -85c0 -67 49 -118 116 -118c71 0 115 55 115 118h72zM270 628h-85v84h85v-84z" />
    <glyph glyph-name="endash.case" horiz-adv-x="522" 
d="M470 322h-418v67h418v-67z" />
    <glyph glyph-name="emdash.case" horiz-adv-x="914" 
d="M838 322h-762v68h762v-68z" />
    <glyph glyph-name="afii00208.case" horiz-adv-x="914" 
d="M838 322h-762v68h762v-68z" />
    <glyph glyph-name="guilsinglleft.case" horiz-adv-x="328" 
d="M250 146l-210 210l210 210v-90l-120 -120l120 -121v-89z" />
    <glyph glyph-name="guilsinglright.case" horiz-adv-x="328" 
d="M288 356l-210 -210v89l121 121l-121 120v90z" />
    <glyph glyph-name="caroncomma.ss01" horiz-adv-x="530" 
d="M620 596l-68 -65v190h68v-125z" />
    <glyph glyph-name="commaaccent.ss01" horiz-adv-x="264" 
d="M184 -133c0 -55 -41 -96 -104 -96v45c31 0 54 22 54 51s-23 51 -54 51v45c63 0 104 -41 104 -96z" />
    <glyph glyph-name="commaturn.ss01" horiz-adv-x="264" 
d="M169 557c-63 0 -104 42 -104 96c0 55 41 96 104 96v-44c-31 0 -54 -23 -54 -52c0 -28 23 -51 54 -51v-45z" />
    <glyph glyph-name="exclam.ss01" horiz-adv-x="316" 
d="M216 712l-13 -512h-58l-13 512h84zM224 47c0 -28 -22 -50 -50 -50s-51 22 -51 50s23 50 51 50s50 -22 50 -50z" />
    <glyph glyph-name="period.ss01" horiz-adv-x="272" 
d="M193 54c0 -31 -26 -57 -57 -57s-57 26 -57 57s26 57 57 57s57 -26 57 -57z" />
    <glyph glyph-name="colon.ss01" horiz-adv-x="299" 
d="M220 345c0 -31 -26 -57 -57 -57s-57 26 -57 57s26 57 57 57s57 -26 57 -57zM220 54c0 -31 -26 -57 -57 -57s-57 26 -57 57s26 57 57 57s57 -26 57 -57z" />
    <glyph glyph-name="semicolon.ss01" horiz-adv-x="297" 
d="M207 -65l-88 -79v232h88v-153zM220 345c0 -31 -26 -57 -57 -57s-57 26 -57 57s26 57 57 57s57 -26 57 -57z" />
    <glyph glyph-name="question.ss01" horiz-adv-x="497" 
d="M451 536c0 -47 -19 -83 -45 -121l-82 -118c-12 -18 -18 -42 -18 -58v-39h-72v40c0 39 10 64 31 94l81 117c19 28 33 51 33 85c0 67 -48 118 -115 118c-71 0 -116 -56 -116 -119h-72c0 102 80 183 188 183c105 0 187 -75 187 -182zM319 47c0 -28 -22 -50 -50 -50
s-50 22 -50 50s22 50 50 50s50 -22 50 -50z" />
    <glyph glyph-name="at.ss01" horiz-adv-x="950" 
d="M886 322c0 -158 -122 -294 -291 -294h-62l12 57c-33 -41 -72 -63 -123 -63c-81 0 -140 46 -140 141c0 26 4 59 9 84c15 79 38 140 83 179c37 33 80 45 120 45c63 0 98 -32 112 -67l13 61h64l-78 -388c131 2 219 121 219 245c0 177 -130 297 -311 297
c-206 0 -373 -167 -373 -377c0 -220 149 -380 380 -380h50l-11 -54h-50c-253 0 -433 185 -433 434c0 244 194 435 437 435c222 0 373 -144 373 -355zM581 321c0 67 -41 91 -83 91c-30 0 -59 -13 -80 -33c-26 -25 -45 -61 -59 -133c-5 -26 -9 -53 -9 -74c0 -67 40 -91 82 -91
c30 0 61 14 82 34c26 25 44 60 58 132c5 26 9 53 9 74z" />
    <glyph glyph-name="C.ss01" horiz-adv-x="587" 
d="M525 81c-55 -53 -114 -87 -200 -87c-74 0 -134 26 -178 70c-67 67 -71 129 -71 292s4 225 71 292c44 44 104 70 178 70c86 0 145 -34 200 -87l-51 -51c-44 44 -81 70 -149 70c-49 0 -90 -17 -123 -50c-45 -46 -50 -98 -50 -244s5 -198 50 -244c33 -33 74 -50 123 -50
c68 0 105 26 149 70z" />
    <glyph glyph-name="G.ss01" horiz-adv-x="645" 
d="M575 260c0 -81 -16 -137 -61 -184c-48 -52 -115 -82 -189 -82s-134 26 -178 70c-67 67 -71 129 -71 292s4 225 71 292c44 44 104 70 178 70c94 0 150 -34 213 -97l-51 -51c-50 50 -89 80 -162 80c-49 0 -91 -17 -123 -50c-45 -46 -50 -98 -50 -244s5 -198 50 -244
c32 -33 74 -50 123 -50c52 0 101 21 134 61c29 35 40 75 40 130v54h-174v65h250v-112z" />
    <glyph glyph-name="i.ss01" horiz-adv-x="253" 
d="M162 0h-72v492h72v-492zM176 677c0 -27 -23 -49 -50 -49s-49 22 -49 49s22 49 49 49s50 -22 50 -49z" />
    <glyph glyph-name="j.ss01" horiz-adv-x="253" 
d="M162 -89c0 -75 -39 -132 -125 -132h-52v63h39c50 0 66 24 66 72v578h72v-581zM176 677c0 -27 -23 -49 -50 -49s-49 22 -49 49s22 49 49 49s50 -22 50 -49z" />
    <glyph glyph-name="exclamdown.ss01" horiz-adv-x="316" 
d="M191 -220h-84l13 512h58zM199 445c0 -28 -22 -50 -50 -50s-50 22 -50 50s22 50 50 50s50 -22 50 -50z" />
    <glyph glyph-name="dieresis.ss01" horiz-adv-x="500" 
d="M401 645c0 -25 -20 -45 -45 -45s-45 20 -45 45s20 46 45 46s45 -21 45 -46zM189 645c0 -25 -20 -45 -45 -45s-45 20 -45 45s20 46 45 46s45 -21 45 -46z" />
    <glyph glyph-name="periodcentered.ss01" horiz-adv-x="272" 
d="M193 267c0 -31 -26 -57 -57 -57s-57 26 -57 57s26 56 57 56s57 -25 57 -56z" />
    <glyph glyph-name="cedilla.ss01" horiz-adv-x="500" 
d="M322 -133c0 -55 -41 -96 -104 -96v45c31 0 54 22 54 51s-23 51 -54 51v45c63 0 104 -41 104 -96z" />
    <glyph glyph-name="questiondown.ss01" horiz-adv-x="497" 
d="M427 -43c0 -102 -80 -183 -188 -183c-105 0 -187 76 -187 183c0 47 19 82 45 120l82 118c12 18 18 42 18 58v40h72v-41c0 -39 -10 -64 -31 -94l-81 -116c-19 -28 -33 -51 -33 -85c0 -67 48 -118 115 -118c71 0 116 55 116 118h72zM284 445c0 -28 -22 -50 -50 -50
s-51 22 -51 50s23 50 51 50s50 -22 50 -50z" />
    <glyph glyph-name="Adieresis.ss01" horiz-adv-x="611" 
d="M599 0h-81l-57 161h-311l-57 -161h-81l262 712h64zM439 227l-132 376l-134 -376h266zM453 832c0 -25 -20 -45 -45 -45s-45 20 -45 45s20 46 45 46s45 -21 45 -46zM241 832c0 -25 -20 -45 -45 -45s-45 20 -45 45s20 46 45 46s45 -21 45 -46z" />
    <glyph glyph-name="Ccedilla.ss01" horiz-adv-x="587" 
d="M525 81c-55 -53 -114 -87 -200 -87c-74 0 -134 26 -178 70c-67 67 -71 129 -71 292s4 225 71 292c44 44 104 70 178 70c86 0 145 -34 200 -87l-51 -51c-44 44 -81 70 -149 70c-49 0 -90 -17 -123 -50c-45 -46 -50 -98 -50 -244s5 -198 50 -244c33 -33 74 -50 123 -50
c68 0 105 26 149 70zM377 -133c0 -55 -41 -96 -104 -96v45c31 0 54 22 54 51s-23 51 -54 51v45c63 0 104 -41 104 -96z" />
    <glyph glyph-name="Edieresis.ss01" horiz-adv-x="600" 
d="M545 0h-442v712h442v-68h-366v-251h312v-68h-312v-257h366v-68zM464 832c0 -25 -20 -45 -45 -45s-45 20 -45 45s20 46 45 46s45 -21 45 -46zM252 832c0 -25 -20 -45 -45 -45s-45 20 -45 45s20 46 45 46s45 -21 45 -46z" />
    <glyph glyph-name="Idieresis.ss01" horiz-adv-x="282" 
d="M179 0h-76v712h76v-712zM294 832c0 -25 -20 -45 -45 -45s-45 20 -45 45s20 46 45 46s45 -21 45 -46zM82 832c0 -25 -20 -45 -45 -45s-45 20 -45 45s20 46 45 46s45 -21 45 -46z" />
    <glyph glyph-name="Odieresis.ss01" 
d="M574 356c0 -163 -5 -225 -72 -292c-44 -44 -103 -70 -177 -70s-134 26 -178 70c-67 67 -71 129 -71 292s4 225 71 292c44 44 104 70 178 70s133 -26 177 -70c67 -67 72 -129 72 -292zM498 356c0 146 -5 198 -50 244c-33 33 -75 50 -123 50s-90 -17 -123 -50
c-45 -46 -50 -98 -50 -244s5 -198 50 -244c33 -33 75 -50 123 -50s90 17 123 50c45 46 50 98 50 244zM476 832c0 -25 -20 -45 -45 -45s-45 20 -45 45s20 46 45 46s45 -21 45 -46zM264 832c0 -25 -20 -45 -45 -45s-45 20 -45 45s20 46 45 46s45 -21 45 -46z" />
    <glyph glyph-name="Udieresis.ss01" horiz-adv-x="683" 
d="M590 235c0 -142 -105 -241 -249 -241s-248 99 -248 241v477h76v-471c0 -108 68 -179 172 -179s173 71 173 179v471h76v-477zM492 832c0 -25 -20 -45 -45 -45s-45 20 -45 45s20 46 45 46s45 -21 45 -46zM280 832c0 -25 -20 -45 -45 -45s-45 20 -45 45s20 46 45 46
s45 -21 45 -46z" />
    <glyph glyph-name="adieresis.ss01" horiz-adv-x="526" 
d="M441 0h-72v47c-39 -39 -76 -53 -142 -53c-68 0 -105 12 -139 45c-25 24 -37 61 -37 100c0 87 61 142 171 142h147v47c0 71 -35 108 -126 108c-62 0 -94 -16 -124 -57l-49 45c43 57 93 74 174 74c133 0 197 -58 197 -164v-334zM369 174v53h-137c-74 0 -111 -29 -111 -87
c0 -57 35 -84 114 -84c41 0 77 4 109 33c17 16 25 44 25 85zM403 645c0 -25 -20 -45 -45 -45s-45 20 -45 45s20 46 45 46s45 -21 45 -46zM191 645c0 -25 -20 -45 -45 -45s-45 20 -45 45s20 46 45 46s45 -21 45 -46z" />
    <glyph glyph-name="ccedilla.ss01" horiz-adv-x="490" 
d="M443 67c-51 -55 -94 -73 -162 -73c-124 0 -218 84 -218 252s94 252 218 252c68 0 111 -18 162 -73l-49 -46c-37 41 -66 55 -113 55c-48 0 -88 -19 -114 -56c-23 -32 -32 -70 -32 -132s9 -100 32 -132c26 -37 66 -56 114 -56c47 0 76 15 113 56zM322 -133
c0 -55 -41 -96 -104 -96v45c31 0 54 22 54 51s-23 51 -54 51v45c63 0 104 -41 104 -96z" />
    <glyph glyph-name="edieresis.ss01" horiz-adv-x="530" 
d="M467 227h-332c0 -108 50 -170 145 -170c57 0 90 17 129 56l49 -43c-50 -50 -97 -76 -180 -76c-131 0 -215 78 -215 252c0 160 77 252 202 252c128 0 202 -91 202 -239v-32zM396 281c-3 40 -4 56 -16 82c-21 45 -62 74 -115 74s-94 -29 -115 -74c-12 -26 -13 -42 -15 -82
h261zM419 645c0 -25 -20 -45 -45 -45s-45 20 -45 45s20 46 45 46s45 -21 45 -46zM207 645c0 -25 -20 -45 -45 -45s-45 20 -45 45s20 46 45 46s45 -21 45 -46z" />
    <glyph glyph-name="idieresis.ss01" horiz-adv-x="253" 
d="M162 0h-72v492h72v-492zM278 645c0 -25 -20 -45 -45 -45s-45 20 -45 45s20 46 45 46s45 -21 45 -46zM66 645c0 -25 -20 -45 -45 -45s-45 20 -45 45s20 46 45 46s45 -21 45 -46z" />
    <glyph glyph-name="odieresis.ss01" horiz-adv-x="530" 
d="M466 246c0 -76 -10 -145 -60 -196c-34 -35 -81 -56 -141 -56s-107 21 -141 56c-50 51 -60 120 -60 196s10 146 60 196c34 35 81 56 141 56s107 -21 141 -56c50 -50 60 -120 60 -196zM394 246c0 56 -3 116 -39 152c-24 24 -55 36 -90 36s-65 -12 -89 -36
c-36 -36 -40 -96 -40 -152c0 -55 3 -115 40 -152c24 -24 54 -36 89 -36s66 12 90 36c36 37 39 97 39 152zM416 645c0 -25 -20 -45 -45 -45s-45 20 -45 45s20 46 45 46s45 -21 45 -46zM204 645c0 -25 -20 -45 -45 -45s-45 20 -45 45s20 46 45 46s45 -21 45 -46z" />
    <glyph glyph-name="divide.ss01" horiz-adv-x="522" 
d="M471 236h-420v67h420v-67zM318 90c0 -31 -26 -57 -57 -57s-57 26 -57 57s26 57 57 57s57 -26 57 -57zM318 449c0 -31 -26 -57 -57 -57s-57 26 -57 57s26 57 57 57s57 -26 57 -57z" />
    <glyph glyph-name="udieresis.ss01" horiz-adv-x="562" 
d="M472 0h-71v55c-35 -40 -84 -61 -139 -61c-53 0 -97 16 -127 46c-35 34 -50 81 -50 138v314h72v-303c0 -87 46 -131 120 -131s123 45 123 131v303h72v-492zM429 645c0 -25 -20 -45 -45 -45s-45 20 -45 45s20 46 45 46s45 -21 45 -46zM217 645c0 -25 -20 -45 -45 -45
s-45 20 -45 45s20 46 45 46s45 -21 45 -46z" />
    <glyph glyph-name="ydieresis.ss01" horiz-adv-x="447" 
d="M436 492l-224 -611c-10 -27 -21 -45 -35 -58c-26 -25 -61 -34 -96 -34h-31v64h22c50 0 65 16 81 61l35 96l-177 482h78l135 -395l134 395h78zM374 645c0 -25 -20 -45 -45 -45s-45 20 -45 45s20 46 45 46s45 -21 45 -46zM162 645c0 -25 -20 -45 -45 -45s-45 20 -45 45
s20 46 45 46s45 -21 45 -46z" />
    <glyph glyph-name="Aogonek.ss01" horiz-adv-x="611" 
d="M599 0h-81l-57 161h-311l-57 -161h-81l262 712h64zM439 227l-132 376l-134 -376h266zM590 -229c-63 0 -104 41 -104 96s41 96 104 96v-45c-31 0 -54 -22 -54 -51s23 -51 54 -51v-45z" />
    <glyph glyph-name="aogonek.ss01" horiz-adv-x="526" 
d="M441 0h-72v47c-39 -39 -76 -53 -142 -53c-68 0 -105 12 -139 45c-25 24 -37 61 -37 100c0 87 61 142 171 142h147v47c0 71 -35 108 -126 108c-62 0 -94 -16 -124 -57l-49 45c43 57 93 74 174 74c133 0 197 -58 197 -164v-334zM369 174v53h-137c-74 0 -111 -29 -111 -87
c0 -57 35 -84 114 -84c41 0 77 4 109 33c17 16 25 44 25 85zM431 -229c-63 0 -104 41 -104 96s41 96 104 96v-45c-31 0 -54 -22 -54 -51s23 -51 54 -51v-45z" />
    <glyph glyph-name="Cacute.ss01" horiz-adv-x="587" 
d="M525 81c-55 -53 -114 -87 -200 -87c-74 0 -134 26 -178 70c-67 67 -71 129 -71 292s4 225 71 292c44 44 104 70 178 70c86 0 145 -34 200 -87l-51 -51c-44 44 -81 70 -149 70c-49 0 -90 -17 -123 -50c-45 -46 -50 -98 -50 -244s5 -198 50 -244c33 -33 74 -50 123 -50
c68 0 105 26 149 70zM429 934l-105 -154h-69l91 154h83z" />
    <glyph glyph-name="Ccircumflex.ss01" horiz-adv-x="587" 
d="M525 81c-55 -53 -114 -87 -200 -87c-74 0 -134 26 -178 70c-67 67 -71 129 -71 292s4 225 71 292c44 44 104 70 178 70c86 0 145 -34 200 -87l-51 -51c-44 44 -81 70 -149 70c-49 0 -90 -17 -123 -50c-45 -46 -50 -98 -50 -244s5 -198 50 -244c33 -33 74 -50 123 -50
c68 0 105 26 149 70zM484 780h-69l-90 105l-91 -105h-69l126 153h68z" />
    <glyph glyph-name="Cdotaccent.ss01" horiz-adv-x="587" 
d="M525 81c-55 -53 -114 -87 -200 -87c-74 0 -134 26 -178 70c-67 67 -71 129 -71 292s4 225 71 292c44 44 104 70 178 70c86 0 145 -34 200 -87l-51 -51c-44 44 -81 70 -149 70c-49 0 -90 -17 -123 -50c-45 -46 -50 -98 -50 -244s5 -198 50 -244c33 -33 74 -50 123 -50
c68 0 105 26 149 70zM383 834c0 -25 -20 -45 -44 -45c-26 0 -46 20 -46 44c0 26 20 46 45 46s45 -20 45 -45z" />
    <glyph glyph-name="cdotaccent.ss01" horiz-adv-x="490" 
d="M443 67c-51 -55 -94 -73 -162 -73c-124 0 -218 84 -218 252s94 252 218 252c68 0 111 -18 162 -73l-49 -46c-37 41 -66 55 -113 55c-48 0 -88 -19 -114 -56c-23 -32 -32 -70 -32 -132s9 -100 32 -132c26 -37 66 -56 114 -56c47 0 76 15 113 56zM328 656
c0 -25 -20 -46 -45 -46s-45 21 -45 45c0 25 20 45 44 45c26 0 46 -20 46 -44z" />
    <glyph glyph-name="Ccaron.ss01" horiz-adv-x="587" 
d="M525 81c-55 -53 -114 -87 -200 -87c-74 0 -134 26 -178 70c-67 67 -71 129 -71 292s4 225 71 292c44 44 104 70 178 70c86 0 145 -34 200 -87l-51 -51c-44 44 -81 70 -149 70c-49 0 -90 -17 -123 -50c-45 -46 -50 -98 -50 -244s5 -198 50 -244c33 -33 74 -50 123 -50
c68 0 105 26 149 70zM485 933l-126 -153h-68l-125 153h69l90 -104l91 104h69z" />
    <glyph glyph-name="dcaron.ss01" horiz-adv-x="545" 
d="M455 0h-71v59c-41 -52 -84 -65 -140 -65c-51 0 -94 17 -120 43c-49 50 -60 130 -60 209s11 160 60 209c26 26 69 43 120 43c55 0 98 -12 139 -63v277h72v-712zM383 246c0 96 -16 188 -123 188c-108 0 -124 -92 -124 -188s16 -188 124 -188c107 0 123 92 123 188zM620 596
l-68 -65v190h68v-125z" />
    <glyph glyph-name="Edotaccent.ss01" horiz-adv-x="600" 
d="M545 0h-442v712h442v-68h-366v-251h312v-68h-312v-257h366v-68zM344 834c0 -25 -20 -45 -44 -45c-26 0 -46 20 -46 44c0 26 20 46 45 46s45 -20 45 -45z" />
    <glyph glyph-name="edotaccent.ss01" horiz-adv-x="530" 
d="M467 227h-332c0 -108 50 -170 145 -170c57 0 90 17 129 56l49 -43c-50 -50 -97 -76 -180 -76c-131 0 -215 78 -215 252c0 160 77 252 202 252c128 0 202 -91 202 -239v-32zM396 281c-3 40 -4 56 -16 82c-21 45 -62 74 -115 74s-94 -29 -115 -74c-12 -26 -13 -42 -15 -82
h261zM309 656c0 -25 -20 -46 -45 -46s-45 21 -45 45c0 25 20 45 44 45c26 0 46 -20 46 -44z" />
    <glyph glyph-name="Eogonek.ss01" horiz-adv-x="600" 
d="M545 0h-442v712h442v-68h-366v-251h312v-68h-312v-257h366v-68zM533 -229c-63 0 -104 41 -104 96s41 96 104 96v-45c-31 0 -54 -22 -54 -51s23 -51 54 -51v-45z" />
    <glyph glyph-name="eogonek.ss01" horiz-adv-x="530" 
d="M467 227h-332c0 -108 50 -170 145 -170c57 0 90 17 129 56l49 -43c-50 -50 -97 -76 -180 -76c-131 0 -215 78 -215 252c0 160 77 252 202 252c128 0 202 -91 202 -239v-32zM396 281c-3 40 -4 56 -16 82c-21 45 -62 74 -115 74s-94 -29 -115 -74c-12 -26 -13 -42 -15 -82
h261zM428 -229c-63 0 -104 41 -104 96s41 96 104 96v-45c-31 0 -54 -22 -54 -51s23 -51 54 -51v-45z" />
    <glyph glyph-name="Gcircumflex.ss01" horiz-adv-x="645" 
d="M575 260c0 -81 -16 -137 -61 -184c-48 -52 -115 -82 -189 -82s-134 26 -178 70c-67 67 -71 129 -71 292s4 225 71 292c44 44 104 70 178 70c94 0 150 -34 213 -97l-51 -51c-50 50 -89 80 -162 80c-49 0 -91 -17 -123 -50c-45 -46 -50 -98 -50 -244s5 -198 50 -244
c32 -33 74 -50 123 -50c52 0 101 21 134 61c29 35 40 75 40 130v54h-174v65h250v-112zM484 780h-69l-90 105l-91 -105h-69l126 153h68z" />
    <glyph glyph-name="Gbreve.ss01" horiz-adv-x="645" 
d="M575 260c0 -81 -16 -137 -61 -184c-48 -52 -115 -82 -189 -82s-134 26 -178 70c-67 67 -71 129 -71 292s4 225 71 292c44 44 104 70 178 70c94 0 150 -34 213 -97l-51 -51c-50 50 -89 80 -162 80c-49 0 -91 -17 -123 -50c-45 -46 -50 -98 -50 -244s5 -198 50 -244
c32 -33 74 -50 123 -50c52 0 101 21 134 61c29 35 40 75 40 130v54h-174v65h250v-112zM490 933c-8 -91 -63 -139 -165 -139s-157 48 -165 139h56c7 -53 48 -83 109 -83s102 30 109 83h56z" />
    <glyph glyph-name="Gdotaccent.ss01" horiz-adv-x="645" 
d="M575 260c0 -81 -16 -137 -61 -184c-48 -52 -115 -82 -189 -82s-134 26 -178 70c-67 67 -71 129 -71 292s4 225 71 292c44 44 104 70 178 70c94 0 150 -34 213 -97l-51 -51c-50 50 -89 80 -162 80c-49 0 -91 -17 -123 -50c-45 -46 -50 -98 -50 -244s5 -198 50 -244
c32 -33 74 -50 123 -50c52 0 101 21 134 61c29 35 40 75 40 130v54h-174v65h250v-112zM388 834c0 -25 -20 -45 -44 -45c-26 0 -46 20 -46 44c0 26 20 46 45 46s45 -20 45 -45z" />
    <glyph glyph-name="gdotaccent.ss01" horiz-adv-x="543" 
d="M453 -15c0 -122 -76 -211 -205 -211c-74 0 -115 19 -167 66l47 46c36 -32 61 -49 118 -49c95 0 135 67 135 151v77c-40 -51 -85 -64 -138 -64c-50 0 -93 18 -119 44c-49 49 -60 125 -60 205s11 156 60 205c26 26 70 43 120 43c54 0 98 -12 138 -64v58h71v-507zM381 250
c0 92 -15 184 -122 184s-123 -92 -123 -184s16 -184 123 -184s122 92 122 184zM304 656c0 -25 -20 -46 -45 -46s-45 21 -45 45c0 25 20 45 44 45c26 0 46 -20 46 -44z" />
    <glyph glyph-name="Gcommaaccent.ss01" horiz-adv-x="645" 
d="M575 260c0 -81 -16 -137 -61 -184c-48 -52 -115 -82 -189 -82s-134 26 -178 70c-67 67 -71 129 -71 292s4 225 71 292c44 44 104 70 178 70c94 0 150 -34 213 -97l-51 -51c-50 50 -89 80 -162 80c-49 0 -91 -17 -123 -50c-45 -46 -50 -98 -50 -244s5 -198 50 -244
c32 -33 74 -50 123 -50c52 0 101 21 134 61c29 35 40 75 40 130v54h-174v65h250v-112zM384 -133c0 -55 -41 -96 -104 -96v45c31 0 54 22 54 51s-23 51 -54 51v45c63 0 104 -41 104 -96z" />
    <glyph glyph-name="gcommaaccent.ss01" horiz-adv-x="543" 
d="M453 -15c0 -122 -76 -211 -205 -211c-74 0 -115 19 -167 66l47 46c36 -32 61 -49 118 -49c95 0 135 67 135 151v77c-40 -51 -85 -64 -138 -64c-50 0 -93 18 -119 44c-49 49 -60 125 -60 205s11 156 60 205c26 26 70 43 120 43c54 0 98 -12 138 -64v58h71v-507zM381 250
c0 92 -15 184 -122 184s-123 -92 -123 -184s16 -184 123 -184s122 92 122 184zM319 557c-63 0 -104 42 -104 96c0 55 41 96 104 96v-44c-31 0 -54 -23 -54 -52c0 -28 23 -51 54 -51v-45z" />
    <glyph glyph-name="Iogonek.ss01" horiz-adv-x="282" 
d="M179 0h-76v712h76v-712zM186 -229c-63 0 -104 41 -104 96s41 96 104 96v-45c-31 0 -54 -22 -54 -51s23 -51 54 -51v-45z" />
    <glyph glyph-name="iogonek.ss01" horiz-adv-x="253" 
d="M162 0h-72v492h72v-492zM176 677c0 -27 -23 -49 -50 -49s-49 22 -49 49s22 49 49 49s50 -22 50 -49zM170 -226c-63 0 -104 41 -104 96s41 96 104 96v-45c-31 0 -54 -22 -54 -51s23 -51 54 -51v-45z" />
    <glyph glyph-name="Idotaccent.ss01" horiz-adv-x="282" 
d="M179 0h-76v712h76v-712zM184 834c0 -25 -20 -45 -44 -45c-26 0 -46 20 -46 44c0 26 20 46 45 46s45 -20 45 -45z" />
    <glyph glyph-name="ij.ss01" horiz-adv-x="506" 
d="M162 0h-72v492h72v-492zM176 677c0 -27 -23 -49 -50 -49s-49 22 -49 49s22 49 49 49s50 -22 50 -49zM415 -89c0 -75 -39 -132 -125 -132h-52v63h39c50 0 66 24 66 72v578h72v-581zM429 677c0 -27 -23 -49 -50 -49s-49 22 -49 49s22 49 49 49s50 -22 50 -49z" />
    <glyph glyph-name="Kcommaaccent.ss01" 
d="M636 0h-90l-217 379l-150 -180v-199h-76v712h76v-409l332 409h93l-224 -275zM398 -133c0 -55 -41 -96 -104 -96v45c31 0 54 22 54 51s-23 51 -54 51v45c63 0 104 -41 104 -96z" />
    <glyph glyph-name="kcommaaccent.ss01" horiz-adv-x="536" 
d="M503 0h-89l-156 252l-96 -110v-142h-72v712h72v-476l222 256h90l-167 -188zM329 -133c0 -55 -41 -96 -104 -96v45c31 0 54 22 54 51s-23 51 -54 51v45c63 0 104 -41 104 -96z" />
    <glyph glyph-name="Lcommaaccent.ss01" horiz-adv-x="573" 
d="M543 0h-440v712h76v-644h364v-68zM382 -133c0 -55 -41 -96 -104 -96v45c31 0 54 22 54 51s-23 51 -54 51v45c63 0 104 -41 104 -96z" />
    <glyph glyph-name="lcommaaccent.ss01" horiz-adv-x="297" 
d="M265 0h-52c-86 0 -125 56 -125 131v581h72v-578c0 -48 16 -72 66 -72h39v-62zM238 -133c0 -55 -41 -96 -104 -96v45c31 0 54 22 54 51s-23 51 -54 51v45c63 0 104 -41 104 -96z" />
    <glyph glyph-name="Lcaron.ss01" horiz-adv-x="573" 
d="M543 0h-440v712h76v-644h364v-68zM375 587l-68 -65v190h68v-125z" />
    <glyph glyph-name="lcaron.ss01" horiz-adv-x="297" 
d="M265 0h-52c-86 0 -125 56 -125 131v581h72v-578c0 -48 16 -72 66 -72h39v-62zM325 596l-68 -65v190h68v-125z" />
    <glyph glyph-name="Ldot.ss01" horiz-adv-x="573" 
d="M543 0h-440v712h76v-644h364v-68zM472 359c0 -25 -20 -45 -44 -45c-26 0 -46 20 -46 44c0 26 20 46 45 46s45 -20 45 -45z" />
    <glyph glyph-name="ldot.ss01" horiz-adv-x="294" 
d="M265 0h-52c-86 0 -125 56 -125 131v581h72v-578c0 -48 16 -72 66 -72h39v-62zM315 271c0 -25 -20 -46 -45 -46s-45 21 -45 45c0 25 20 45 44 45c26 0 46 -20 46 -44z" />
    <glyph glyph-name="Ncommaaccent.ss01" horiz-adv-x="732" 
d="M629 0h-72l-378 571v-571h-76v712h72l378 -569v569h76v-712zM411 -133c0 -55 -41 -96 -104 -96v45c31 0 54 22 54 51s-23 51 -54 51v45c63 0 104 -41 104 -96z" />
    <glyph glyph-name="ncommaaccent.ss01" horiz-adv-x="562" 
d="M477 0h-72v303c0 87 -47 131 -121 131s-122 -45 -122 -131v-303h-72v492h72v-54c35 40 83 60 138 60c53 0 96 -16 126 -46c35 -34 51 -80 51 -137v-315zM351 -133c0 -55 -41 -96 -104 -96v45c31 0 54 22 54 51s-23 51 -54 51v45c63 0 104 -41 104 -96z" />
    <glyph glyph-name="Rcommaaccent.ss01" horiz-adv-x="656" 
d="M601 0h-89l-162 316h-171v-316h-76v712h273c124 0 211 -75 211 -198c0 -104 -63 -172 -155 -191zM511 513c0 87 -59 131 -142 131h-190v-261h190c83 0 142 43 142 130zM376 -133c0 -55 -41 -96 -104 -96v45c31 0 54 22 54 51s-23 51 -54 51v45c63 0 104 -41 104 -96z" />
    <glyph glyph-name="rcommaaccent.ss01" horiz-adv-x="421" 
d="M418 452l-53 -54c-27 27 -47 36 -85 36c-72 0 -118 -57 -118 -132v-302h-72v492h72v-60c27 41 81 66 138 66c47 0 83 -11 118 -46zM194 -133c0 -55 -41 -96 -104 -96v45c31 0 54 22 54 51s-23 51 -54 51v45c63 0 104 -41 104 -96z" />
    <glyph glyph-name="Scedilla.ss01" horiz-adv-x="588" 
d="M532 196c0 -125 -97 -202 -246 -202c-106 0 -177 27 -243 94l51 51c59 -59 114 -77 194 -77c105 0 169 48 169 132c0 38 -11 68 -35 89c-22 20 -42 27 -93 35l-83 12c-56 9 -98 26 -130 54c-36 32 -55 76 -55 134c0 121 87 200 228 200c91 0 151 -24 212 -78l-49 -49
c-43 41 -92 62 -166 62c-96 0 -151 -53 -151 -133c0 -35 10 -64 32 -83s56 -31 93 -37l83 -13c66 -10 97 -22 129 -51c38 -33 60 -81 60 -140zM352 -133c0 -55 -41 -96 -104 -96v45c31 0 54 22 54 51s-23 51 -54 51v45c63 0 104 -41 104 -96z" />
    <glyph glyph-name="scedilla.ss01" horiz-adv-x="496" 
d="M445 144c0 -95 -80 -150 -200 -150c-84 0 -149 19 -202 71l48 48c38 -40 92 -57 153 -57c82 0 131 29 131 87c0 44 -24 67 -82 72l-81 7c-96 8 -147 50 -147 132c0 90 75 144 181 144c71 0 132 -17 177 -53l-47 -47c-35 27 -80 39 -131 39c-72 0 -110 -30 -110 -81
c0 -44 27 -66 88 -72l77 -7c86 -8 145 -40 145 -133zM305 -133c0 -55 -41 -96 -104 -96v45c31 0 54 22 54 51s-23 51 -54 51v45c63 0 104 -41 104 -96z" />
    <glyph glyph-name="Tcommaaccent.ss01" horiz-adv-x="548" 
d="M518 644h-206v-644h-76v644h-206v68h488v-68zM329 -133c0 -55 -41 -96 -104 -96v45c31 0 54 22 54 51s-23 51 -54 51v45c63 0 104 -41 104 -96z" />
    <glyph glyph-name="tcommaaccent.ss01" horiz-adv-x="332" 
d="M279 0h-51c-84 0 -126 59 -126 132v305h-62v55h62v151h72v-151h105v-55h-105v-303c0 -45 21 -72 67 -72h38v-62zM241 -133c0 -55 -41 -96 -104 -96v45c31 0 54 22 54 51s-23 51 -54 51v45c63 0 104 -41 104 -96z" />
    <glyph glyph-name="tcaron.ss01" horiz-adv-x="332" 
d="M279 0h-51c-84 0 -126 59 -126 132v305h-62v55h62v151h72v-151h105v-55h-105v-303c0 -45 21 -72 67 -72h38v-62zM330 596l-68 -65v190h68v-125z" />
    <glyph glyph-name="Uogonek.ss01" horiz-adv-x="683" 
d="M590 235c0 -142 -105 -241 -249 -241s-248 99 -248 241v477h76v-471c0 -108 68 -179 172 -179s173 71 173 179v471h76v-477zM531 -229c-63 0 -104 41 -104 96s41 96 104 96v-45c-31 0 -54 -22 -54 -51s23 -51 54 -51v-45z" />
    <glyph glyph-name="uogonek.ss01" horiz-adv-x="562" 
d="M472 0h-71v55c-35 -40 -84 -61 -139 -61c-53 0 -97 16 -127 46c-35 34 -50 81 -50 138v314h72v-303c0 -87 46 -131 120 -131s123 45 123 131v303h72v-492zM462 -229c-63 0 -104 41 -104 96s41 96 104 96v-45c-31 0 -54 -22 -54 -51s23 -51 54 -51v-45z" />
    <glyph glyph-name="Ydieresis.ss01" horiz-adv-x="514" 
d="M506 712l-210 -418v-294h-76v294l-212 418h82l168 -341l166 341h82zM408 832c0 -25 -20 -45 -45 -45s-45 20 -45 45s20 46 45 46s45 -21 45 -46zM196 832c0 -25 -20 -45 -45 -45s-45 20 -45 45s20 46 45 46s45 -21 45 -46z" />
    </font>
</defs>
</svg>
